<?xml version="1.0" standalone="no"?>
<!DOCTYPE svg
  PUBLIC '-//W3C//DTD SVG 1.1//EN'
  'http://www.w3.org/Graphics/SVG/1.1/DTD/svg11.dtd'><svg version="1.1" xmlns="http://www.w3.org/2000/svg"><defs><font horiz-adv-x="0" id="font"><font-face ascent="730" bbox="-147 -191 1028 782" cap-height="508" descent="-270" font-family="Unistra A" font-stretch="normal" font-style="normal" font-weight="508" units-per-em="1000" x-height="413" /><missing-glyph d="" horiz-adv-x="200" /><glyph d="" glyph-name=".null" horiz-adv-x="0" unicode="" /><glyph d="" glyph-name="CR" horiz-adv-x="0" unicode="" /><glyph d="" glyph-name="space" horiz-adv-x="200" unicode=" " /><glyph d="" glyph-name="uni00A0" horiz-adv-x="200" unicode=" " /><glyph d="M148 186 318 186L275 426ZM-24 0 249 508H322L417 0H351L328 129H118L49 0Z" glyph-name="A" horiz-adv-x="466" unicode="A" /><glyph d="M31 0 121 508H285Q362 508 401.5 469.5Q441 431 430 372Q424 336 400 307.5Q376 279 335 260Q378 245 396 212.5Q414 180 405 130Q393 65 345 32.5Q297 0 211 0ZM364 373Q371 412 350 431.5Q329 451 280 451H177L107 57H214Q268 57 299.5 78Q331 99 338 140Q347 190 312.5 210.5Q278 231 180 231L183 283Q278 290 317 310.5Q356 331 364 373Z" glyph-name="B" horiz-adv-x="456" unicode="B" /><glyph d="M47 188 71 320Q88 419 144.5 469Q201 519 298 519Q335 519 368.5 511Q402 503 435 486L405 430Q375 446 347.5 453Q320 460 292 460Q227 460 188 424.5Q149 389 137 320L113 188Q102 121 128 85Q154 49 213 49Q242 49 271 56.5Q300 64 348 85L371 28Q313 3 279 -4Q245 -11 204 -11Q115 -11 73 42.5Q31 96 47 188Z" glyph-name="C" horiz-adv-x="422" unicode="C" /><glyph d="M31 0 121 508H263Q366 508 415 455Q464 402 447 309L427 199Q410 101 350.5 50.5Q291 0 191 0ZM361 199 381 309Q393 379 362 415Q331 451 258 451H177L107 57H196Q259 57 304 95Q349 133 361 199Z" glyph-name="D" horiz-adv-x="479" unicode="D" /><glyph d="M31 0 121 508H417L407 451H177L148 285H354L344 228H138L107 57H344L334 0Z" glyph-name="E" horiz-adv-x="411" unicode="E" /><glyph d="M31 0 121 508H417L407 451H177L145 271H351L341 214H135L97 0Z" glyph-name="F" horiz-adv-x="394" unicode="F" /><glyph d="M47 188 71 320Q88 419 144.5 469Q201 519 298 519Q335 519 368.5 511Q402 503 435 486L405 430Q375 446 347.5 453Q320 460 292 460Q227 460 188 424.5Q149 389 137 320L113 188Q102 121 128 85Q154 49 213 49Q247 49 275.5 55.5Q304 62 326 75L350 214H248L258 271H424L382 35Q344 11 301 0Q258 -11 204 -11Q117 -11 74.5 43.5Q32 98 47 188Z" glyph-name="G" horiz-adv-x="471" unicode="G" /><glyph d="M379 283 419 508H485L395 0H329L369 226H137L97 0H31L121 508H187L147 283Z" glyph-name="H" horiz-adv-x="499" unicode="H" /><glyph d="M31 0 121 508H187L97 0Z" glyph-name="I" horiz-adv-x="201" unicode="I" /><glyph d="M191 172 251 508H317L257 172Q242 82 190.5 35.5Q139 -11 55 -11Q33 -11 12.5 -7.5Q-8 -4 -24 2L-4 59Q10 55 24.5 53Q39 51 58 51Q112 51 146.5 82Q181 113 191 172Z" glyph-name="J" horiz-adv-x="326" unicode="J" /><glyph d="M137 229 389 508H473L285 301L396 0L323 -1L234 245L118 118L97 0H31L121 508H187Z" glyph-name="K" horiz-adv-x="434" unicode="K" /><glyph d="M31 0 121 508H187L108 59H328L317 0Z" glyph-name="L" horiz-adv-x="376" unicode="L" /><glyph d="M309 144 542 508H637L547 0H481L555 418L334 75H270L171 419L97 0H31L121 508H208Z" glyph-name="M" horiz-adv-x="651" unicode="M" /><glyph d="M347 89 421 508H484L394 0H316L169 416L96 0H31L121 508H200Z" glyph-name="N" horiz-adv-x="498" unicode="N" /><glyph d="M47 188 71 320Q88 418 144.5 468.5Q201 519 296 519Q388 519 432.5 465.5Q477 412 461 320L437 188Q420 91 363 40Q306 -11 212 -11Q120 -11 75.5 43Q31 97 47 188ZM371 188 395 320Q407 388 380 424.5Q353 461 290 461Q228 461 188.5 425Q149 389 137 320L113 188Q102 120 129 84Q156 48 218 48Q280 48 320 84Q360 120 371 188Z" glyph-name="O" horiz-adv-x="491" unicode="O" /><glyph d="M31 0 121 508H277Q360 508 399 460Q438 412 424 334L418 297Q404 217 356 174.5Q308 132 231 132Q213 132 194.5 135.5Q176 139 159 146L175 196Q191 192 203 190.5Q215 189 227 189Q277 189 310 217Q343 245 352 297L358 334Q368 391 342.5 421Q317 451 258 451H177L97 0Z" glyph-name="P" horiz-adv-x="445" unicode="P" /><glyph d="M47 188 70 320Q88 419 144.5 469Q201 519 295 519Q388 519 432 465Q476 411 460 320L437 188Q428 135 408.5 101.5Q389 68 345 32L308 74Q337 100 350.5 125.5Q364 151 371 188L394 320Q406 389 379 425Q352 461 290 461Q227 461 187.5 425Q148 389 136 320L113 188Q102 127 127 93.5Q152 60 230 41Q282 28 314 7.5Q346 -13 385 -54L341 -98Q300 -57 273 -40.5Q246 -24 208 -14Q110 10 71.5 59.5Q33 109 47 188Z" glyph-name="Q" horiz-adv-x="490" unicode="Q" /><glyph d="M31 0 121 508H261Q346 508 387 464.5Q428 421 415 348L410 321Q400 268 371.5 230Q343 192 300 175L366 0H295L236 163Q217 163 199.5 166.5Q182 170 164 177L180 227Q199 223 210 221.5Q221 220 232 220Q277 220 306 246Q335 272 344 321L349 348Q358 402 332.5 426.5Q307 451 241 451H177L97 0Z" glyph-name="R" horiz-adv-x="442" unicode="R" /><glyph d="M171 231Q98 279 77 317Q56 355 66 403Q77 456 125.5 487.5Q174 519 244 519Q281 519 314.5 511Q348 503 381 486L351 430Q324 444 294.5 452Q265 460 238 460Q193 460 164.5 441Q136 422 130 388Q127 368 132.5 352Q138 336 153 321Q159 315 167 309Q175 303 214 277Q292 225 312 188Q332 151 321 103Q309 48 259.5 18.5Q210 -11 131 -11Q98 -11 65.5 -4.5Q33 2 -6 17L17 74Q52 61 81.5 55Q111 49 142 49Q194 49 222 66.5Q250 84 257 120Q260 139 254 155Q248 171 232 186Q226 193 217 199.5Q208 206 171 231Z" glyph-name="S" horiz-adv-x="368" unicode="S" /><glyph d="M171 231Q96 280 75 318Q54 356 64 403Q75 454 119 486.5Q163 519 220 519Q258 519 287 506.5Q316 494 358 455Q384 432 405 422.5Q426 413 454 413Q486 413 506 436Q526 459 540 508H589L572 413H656L646 357H562L522 127Q515 86 523.5 69Q532 52 561 52Q566 52 571 52.5Q576 53 583 54L588 -5Q580 -6 570.5 -6.5Q561 -7 553 -7Q493 -7 469 26Q445 59 456 127L496 357H458Q413 357 384.5 368Q356 379 323 409Q291 438 267 449Q243 460 216 460Q183 460 158.5 440Q134 420 128 388Q125 368 130.5 352Q136 336 152 321Q158 316 173.5 305Q189 294 214 277Q292 225 312 188Q332 151 321 103Q309 48 259.5 18.5Q210 -11 131 -11Q98 -11 65.5 -4.5Q33 2 -6 17L18 74Q54 60 82.5 54.5Q111 49 142 49Q194 49 222 66.5Q250 84 257 120Q260 139 254 155Q248 171 232 186Q226 193 217 199.5Q208 206 171 231Z" glyph-name="S_t" horiz-adv-x="658" unicode="" /><glyph d="M67 451 77 508H435L425 451H279L199 0H133L213 451Z" glyph-name="T" horiz-adv-x="406" unicode="T" /><glyph d="M363 188 419 508H485L429 188Q410 85 358 37Q306 -11 215 -11Q123 -11 82.5 41.5Q42 94 59 188L115 508H181L125 188Q112 117 135 82.5Q158 48 219 48Q279 48 314.5 82.5Q350 117 363 188Z" glyph-name="U" horiz-adv-x="494" unicode="U" /><glyph d="M195 75 408 508L482 509L229 0H141L68 508H135Z" glyph-name="V" horiz-adv-x="444" unicode="V" /><glyph d="M443 66 565 508H634L494 0H399L328 285L156 0H60L100 508H163L129 66L305 363H371Z" glyph-name="W" horiz-adv-x="628" unicode="W" /><glyph d="M222 314 372 508H449L257 262L365 0H293L212 206L54 0H-24L178 260L70 508H141Z" glyph-name="X" horiz-adv-x="413" unicode="X" /><glyph d="M202 223 380 508H454L226 150L199 0H133L160 150L58 508H124Z" glyph-name="Y" horiz-adv-x="406" unicode="Y" /><glyph d="M79 451 89 508H412L402 451L76 57H338L328 0H-15L-5 57L322 451Z" glyph-name="Z" horiz-adv-x="394" unicode="Z" /><glyph d="M145 169 305 169L353 442ZM-63 0 329 508H639L629 451H421L391 285H580L570 228H381L351 57H566L556 0H275L295 112H102L16 0Z" glyph-name="AE" horiz-adv-x="633" unicode="Æ" /><glyph d="M322 508 651 508L641 451H433L403 285H592L582 228H393L363 57H578L568 0H213Q120 0 76.5 53.5Q33 107 49 199L69 309Q87 412 149 460Q211 508 322 508ZM219 57 297 57L367 451H316Q236 451 192 416.5Q148 382 135 309L115 199Q103 131 130.5 94Q158 57 219 57Z" glyph-name="OE" horiz-adv-x="645" unicode="Œ" /><glyph d="M79 268 122 508H188L152 305L235 348L260 299L140 235L109 59H329L318 0H32L67 197L25 175L0 226Z" glyph-name="Lslash" horiz-adv-x="377" unicode="Ł" /><glyph d="M371 188 395 320Q407 387 379 424Q351 461 290 461Q228 461 188.5 425Q149 389 137 320L113 188Q102 120 129 84Q156 48 218 48Q280 48 320 84Q360 120 371 188ZM296 519Q308 519 320 518Q332 517 345 514L380 576L433 547L402 492Q440 468 455.5 423.5Q471 379 461 320L437 188Q420 91 363 40Q306 -11 212 -11Q194 -11 179.5 -9.5Q165 -8 153 -4L122 -68L67 -40L97 22Q64 48 51 90.5Q38 133 47 188L71 320Q88 418 144.5 468.5Q201 519 296 519Z" glyph-name="Oslash" horiz-adv-x="491" unicode="Ø" /><glyph d="M191 0 31 0L71 226H10L20 283H81L121 508H263Q366 508 415 455Q464 402 447 309L427 199Q410 101 350.5 50.5Q291 0 191 0ZM137 226 107 57H196Q259 57 304 95Q349 133 361 199L381 309Q393 379 362 415Q331 451 258 451H177L147 283H267L257 226Z" glyph-name="Eth" horiz-adv-x="479" unicode="Ð" /><glyph d="M31 0 121 508H187L175 440H265Q348 440 387 392Q426 344 412 266L406 229Q392 150 343 107Q294 64 216 64Q199 64 182 67.5Q165 71 147 78L163 128Q179 124 191 122.5Q203 121 215 121Q265 121 298 149Q331 177 340 229L346 266Q356 323 330.5 353Q305 383 246 383H165L97 0Z" glyph-name="Thorn" horiz-adv-x="445" unicode="Þ" /><glyph d="M311 181 323 250Q332 304 311.5 335Q291 366 245 366Q199 366 170 340.5Q141 315 132 265L111 149Q102 99 121 73Q140 47 185 47Q235 47 267 81Q299 115 311 181ZM45 149 66 265Q79 338 125.5 381Q172 424 240 424Q276 424 304 409.5Q332 395 346 370L367 413H418L346 0H295L291 44Q266 16 236 2.5Q206 -11 171 -11Q99 -11 65.5 33Q32 77 45 149Z" glyph-name="a" horiz-adv-x="450" unicode="a" /><glyph d="M31 0 136 594H202L126 163Q116 109 137 78Q158 47 204 47Q251 47 280 73Q309 99 317 149L338 264Q347 315 328.5 341Q310 367 267 367Q254 367 240 364Q226 361 211 354L193 401Q215 413 236.5 418.5Q258 424 281 424Q352 424 384 381Q416 338 404 264L383 149Q370 76 324 32.5Q278 -11 209 -11Q173 -11 145 3.5Q117 18 103 43L82 0Z" glyph-name="b" horiz-adv-x="449" unicode="b" /><glyph d="M48 159 65 260Q78 340 127.5 382Q177 424 261 424Q289 424 320.5 416.5Q352 409 374 397L345 342Q324 353 301 359Q278 365 254 365Q202 365 170.5 338.5Q139 312 131 260L114 159Q104 101 123.5 74.5Q143 48 196 48Q217 48 244 54Q271 60 302 72L321 18Q281 2 251.5 -4.5Q222 -11 191 -11Q106 -11 70 32.5Q34 76 48 159Z" glyph-name="c" horiz-adv-x="381" unicode="c" /><glyph d="M311 181 384 594H450L346 0H295L291 44Q266 16 236 2.5Q206 -11 171 -11Q99 -11 65.5 33Q32 77 45 149L66 265Q79 341 125 382.5Q171 424 243 424Q263 424 283.5 419Q304 414 319 405L297 357Q285 362 271 364.5Q257 367 242 367Q195 367 168 341.5Q141 316 132 265L111 149Q103 99 122 73Q141 47 185 47Q235 47 267 81Q299 115 311 181Z" glyph-name="d" horiz-adv-x="449" unicode="d" /><glyph d="M46 150 65 260Q79 339 127 381.5Q175 424 252 424Q331 424 368 379.5Q405 335 391 260Q386 231 383 212.5Q380 194 376 178H117L112 150Q103 97 124.5 72Q146 47 201 47Q220 47 245.5 53.5Q271 60 311 75L330 21Q282 1 254 -5Q226 -11 196 -11Q110 -11 71.5 31Q33 73 46 150ZM322 235 326 260Q335 313 315 340.5Q295 368 247 368Q200 368 170 340.5Q140 313 131 260L127 235Z" glyph-name="e" horiz-adv-x="432" unicode="e" /><glyph d="M147 413 152 440Q165 518 207.5 558.5Q250 599 318 599Q333 599 347.5 597Q362 595 377 590L357 534Q345 538 334.5 539.5Q324 541 314 541Q276 541 251 515Q226 489 218 440L213 413H335L325 356H203L140 0H74L137 356H53L63 413Z" glyph-name="f" horiz-adv-x="331" unicode="f" /><glyph d="M46 149 67 264Q80 337 126 380.5Q172 424 241 424Q277 424 305 409.5Q333 395 347 370L368 413H419L345 -6Q328 -102 281.5 -145Q235 -188 153 -188Q129 -188 102.5 -183Q76 -178 47 -168L68 -112Q92 -121 113 -125Q134 -129 153 -129Q208 -129 238 -100.5Q268 -72 279 -6L324 250Q334 305 313.5 335.5Q293 366 246 366Q199 366 170 340Q141 314 133 264L112 149Q103 98 121.5 72Q140 46 183 46Q196 46 210 49Q224 52 239 59L257 12Q235 0 213.5 -5.5Q192 -11 169 -11Q98 -11 66 32Q34 75 46 149Z" glyph-name="g" horiz-adv-x="450" unicode="g" /><glyph d="M31 0 136 594H202L163 372Q187 397 218 410.5Q249 424 284 424Q354 424 385 381.5Q416 339 404 264L357 0H291L338 264Q347 315 329.5 340.5Q312 366 269 366Q220 366 185.5 334.5Q151 303 141 250L97 0Z" glyph-name="h" horiz-adv-x="454" unicode="h" /><glyph d="M146 472 95 534L161 589L211 527ZM31 0 104 413H170L97 0Z" glyph-name="i" horiz-adv-x="202" unicode="i" /><glyph d="M146 472 95 534L161 589L211 527ZM21 -57 104 413H170L87 -57Q74 -127 40.5 -159Q7 -191 -52 -191Q-61 -191 -71.5 -189.5Q-82 -188 -91 -186L-79 -127Q-72 -128 -64 -129Q-56 -130 -48 -130Q-17 -130 -1.5 -113Q14 -96 21 -57Z" glyph-name="j" horiz-adv-x="202" unicode="j" /><glyph d="M31 0 136 594H202L134 211L339 413H425L256 248L364 0H290L206 200L117 114L97 0Z" glyph-name="k" horiz-adv-x="413" unicode="k" /><glyph d="M32 0 136 594H202L98 0Z" glyph-name="l" horiz-adv-x="202" unicode="l" /><glyph d="M282 424Q324 424 350.5 405.5Q377 387 388 351Q413 386 449.5 405Q486 424 528 424Q593 424 620.5 381Q648 338 635 263L589 0H523L570 264Q579 316 564.5 341Q550 366 512 366Q465 366 431 334.5Q397 303 387 250L343 0H277L324 264Q333 316 318.5 341Q304 366 266 366Q219 366 185 334.5Q151 303 141 250L97 0H31L104 413H155L160 370Q183 396 214.5 410Q246 424 282 424Z" glyph-name="m" horiz-adv-x="686" unicode="m" /><glyph d="M155 413 160 369Q184 396 216 410Q248 424 284 424Q355 424 386 381Q417 338 404 264L358 0H292L338 264Q347 315 330 340.5Q313 366 269 366Q220 366 186 334.5Q152 303 142 250L98 0H32L104 413Z" glyph-name="n" horiz-adv-x="455" unicode="n" /><glyph d="M47 153 65 260Q80 339 128 381.5Q176 424 254 424Q334 424 371.5 380Q409 336 395 260L377 153Q362 74 314 31.5Q266 -11 188 -11Q108 -11 70.5 33Q33 77 47 153ZM311 153 329 260Q338 313 318 340Q298 367 249 367Q200 367 170 340Q140 313 131 260L113 153Q104 100 124 73Q144 46 193 46Q242 46 272 73Q302 100 311 153Z" glyph-name="o" horiz-adv-x="442" unicode="o" /><glyph d="M154 413 158 369Q183 397 213 410.5Q243 424 278 424Q350 424 383.5 380Q417 336 404 264L383 148Q370 72 324 30.5Q278 -11 206 -11Q186 -11 165.5 -6Q145 -1 130 8L152 56Q164 51 178 48.5Q192 46 207 46Q254 46 281 71.5Q308 97 317 148L338 264Q346 314 327 340Q308 366 264 366Q214 366 182 332Q150 298 138 232L65 -181H-1L103 413Z" glyph-name="p" horiz-adv-x="449" unicode="p" /><glyph d="M45 149 66 264Q79 337 125 380.5Q171 424 240 424Q276 424 304 409.5Q332 395 346 370L367 413H418L313 -181H247L323 250Q333 304 312 335Q291 366 245 366Q198 366 169 340Q140 314 132 264L111 149Q102 98 120.5 72Q139 46 182 46Q195 46 209 49Q223 52 238 59L256 12Q234 0 212.5 -5.5Q191 -11 168 -11Q97 -11 65 32Q33 75 45 149Z" glyph-name="q" horiz-adv-x="449" unicode="q" /><glyph d="M155 413 161 362Q185 391 215 407.5Q245 424 276 424Q297 424 314.5 420.5Q332 417 346 411L317 348Q303 355 288.5 358.5Q274 362 260 362Q212 362 178.5 318.5Q145 275 130 191L97 0H31L104 413Z" glyph-name="r" horiz-adv-x="324" unicode="r" /><glyph d="M156 187Q88 224 69.5 251.5Q51 279 57 316Q66 368 107 396Q148 424 212 424Q246 424 279.5 416.5Q313 409 342 394L313 339Q282 354 258 360Q234 366 209 366Q174 366 150.5 352.5Q127 339 123 316Q119 295 129.5 280.5Q140 266 197 235Q262 200 284 169Q306 138 299 97Q290 46 246.5 17.5Q203 -11 136 -11Q103 -11 69 -4Q35 3 2 17L24 73Q55 61 84 54.5Q113 48 137 48Q180 48 204 61.5Q228 75 233 101Q238 126 223 142.5Q208 159 156 187Z" glyph-name="s" horiz-adv-x="356" unicode="s" /><glyph d="M173 508 224 508L207 413H291L281 357H197L156 127Q149 86 157.5 69Q166 52 195 52Q200 52 205 52.5Q210 53 217 54L222 -5Q214 -6 204.5 -6.5Q195 -7 187 -7Q127 -7 103 26Q79 59 90 127L131 357H47L57 413Q115 413 135.5 430Q156 447 173 508Z" glyph-name="t" horiz-adv-x="292" unicode="t" /><glyph d="M314 163 358 413H424L351 0H300L295 44Q271 17 239 3Q207 -11 171 -11Q101 -11 70 31.5Q39 74 51 149L98 413H164L117 149Q108 98 125.5 72.5Q143 47 186 47Q235 47 269.5 78.5Q304 110 314 163Z" glyph-name="u" horiz-adv-x="455" unicode="u" /><glyph d="M177 76 354 413H424L205 0H126L53 413H119Z" glyph-name="v" horiz-adv-x="405" unicode="v" /><glyph d="M427 78 562 413H633L464 0H377L325 331L156 0H69L46 413H111L128 78L300 413H373Z" glyph-name="w" horiz-adv-x="607" unicode="w" /><glyph d="M208 270 329 413H412L240 215L349 0H275L194 161L61 0H-22L163 216L61 413H135Z" glyph-name="x" horiz-adv-x="399" unicode="x" /><glyph d="M185 84 361 413H435L156 -99Q128 -150 97.5 -170.5Q67 -191 18 -191Q9 -191 -1.5 -189.5Q-12 -188 -21 -186L-9 -127Q-2 -128 6 -129Q14 -130 22 -130Q48 -130 64.5 -118Q81 -106 98 -75L137 -3L56 413H124Z" glyph-name="y" horiz-adv-x="419" unicode="y" /><glyph d="M67 356 77 413H360L350 356L86 57H302L292 0H-1L10 63L268 356Z" glyph-name="z" horiz-adv-x="367" unicode="z" /><glyph d="M225 424Q271 424 301.5 409Q332 394 344 366Q368 394 402.5 409Q437 424 478 424Q555 424 591.5 379.5Q628 335 614 260Q611 243 607.5 224.5Q604 206 601 192H345L338 149Q328 96 349 71.5Q370 47 424 47Q443 47 468.5 53.5Q494 60 534 75L553 21Q505 1 477 -5Q449 -11 419 -11Q365 -11 332 5Q299 21 285 54Q260 24 220.5 6.5Q181 -11 138 -11Q70 -11 39 22.5Q8 56 18 116Q32 192 93 220.5Q154 249 289 249L293 271Q302 320 284.5 343Q267 366 220 366Q195 366 167.5 359.5Q140 353 109 340L91 392Q129 408 161.5 416Q194 424 225 424ZM546 249 548 260Q557 312 537.5 340Q518 368 473 368Q426 368 396 340.5Q366 313 357 260L355 249ZM145 47Q199 47 231 73Q263 99 272 151L279 192Q172 191 132 175Q92 159 84 116Q78 83 94.5 65Q111 47 145 47Z" glyph-name="ae" horiz-adv-x="654" unicode="æ" /><glyph d="M250 424Q294 424 322 410Q350 396 370 364Q394 392 430 408Q466 424 507 424Q585 424 621.5 380Q658 336 645 260Q637 214 634.5 201Q632 188 630 178H371L366 149Q356 97 378 72Q400 47 455 47Q474 47 499.5 53.5Q525 60 565 75L584 21Q536 1 508 -5Q480 -11 450 -11Q397 -11 365 5Q333 21 320 53Q292 21 258.5 5Q225 -11 184 -11Q105 -11 68.5 33.5Q32 78 46 153L65 261Q79 339 126.5 381.5Q174 424 250 424ZM575 235 579 260Q588 312 568 340Q548 368 502 368Q454 368 424 340Q394 312 385 260L381 235ZM304 153 323 261Q332 314 312.5 340.5Q293 367 245 367Q198 367 169 340Q140 313 131 261L112 153Q103 101 122.5 73.5Q142 46 189 46Q237 46 266 73Q295 100 304 153Z" glyph-name="oe" horiz-adv-x="685" unicode="œ" /><glyph d="M89 271 146 594H212L161 302L219 327L239 277L150 239L108 0H42L78 208L21 183L1 233Z" glyph-name="lslash" horiz-adv-x="223" unicode="ł" /><glyph d="M311 153 329 260Q338 313 318 340Q298 367 249 367Q200 367 170 340Q140 313 131 260L113 153Q104 100 124 73Q144 46 193 46Q242 46 272 73Q302 100 311 153ZM254 424Q267 424 277.5 423Q288 422 297 420L333 483L386 454L354 397Q382 376 393 340.5Q404 305 395 260L377 153Q362 74 314 31.5Q266 -11 188 -11Q174 -11 163.5 -10Q153 -9 144 -7L115 -68L60 -40L87 17Q59 38 49 73.5Q39 109 47 153L65 260Q80 339 128 381.5Q176 424 254 424Z" glyph-name="oslash" horiz-adv-x="442" unicode="ø" /><glyph d="M212 566 250 620Q273 605 293.5 588.5Q314 572 332 554L413 596L437 548L366 511Q395 466 402 410.5Q409 355 396 282L373 149Q359 69 312 29Q265 -11 185 -11Q104 -11 68 30Q32 71 45 146L62 241Q74 312 118.5 353Q163 394 232 394Q252 394 272.5 389Q293 384 308 375L286 327Q274 332 260 334.5Q246 337 231 337Q188 337 162.5 313Q137 289 128 241L111 146Q102 95 121 70.5Q140 46 190 46Q238 46 268 72Q298 98 307 149L330 282Q342 349 336.5 396Q331 443 306 480L233 442L209 490L269 521Q256 532 242 543.5Q228 555 212 566Z" glyph-name="eth" horiz-adv-x="451" unicode="ð" /><glyph d="M-1 -181 136 594H202L163 372Q186 397 216.5 410.5Q247 424 278 424Q350 424 383.5 380Q417 336 404 264L383 148Q370 72 324 30.5Q278 -11 206 -11Q186 -11 165.5 -6Q145 -1 130 8L152 56Q164 51 178 48.5Q192 46 207 46Q254 46 281 71.5Q308 97 317 148L338 264Q346 314 327 340Q308 366 264 366Q214 366 182 332Q150 298 138 232L65 -181Z" glyph-name="thorn" horiz-adv-x="449" unicode="þ" /><glyph d="M172 508 176 464Q205 493 237 506.5Q269 520 310 519Q374 518 407.5 479Q441 440 431 384Q424 346 396.5 312Q369 278 330 260Q372 249 392.5 216Q413 183 405 138Q393 69 344.5 29Q296 -11 226 -11Q200 -11 175 -7Q150 -3 135 3L151 53Q167 50 184 48Q201 46 219 46Q270 46 300.5 70Q331 94 339 140Q348 191 313 212.5Q278 234 181 234L184 286Q280 293 318.5 314.5Q357 336 364 382Q371 422 352 442Q333 462 289 462Q241 462 205 431.5Q169 401 160 350L66 -180H0L121 508Z" glyph-name="germandbls" horiz-adv-x="458" unicode="ß" /><glyph d="M32 0 104 413H170L98 0Z" glyph-name="dotlessi" horiz-adv-x="202" unicode="ı" /><glyph d="M21 -57 104 413H170L87 -57Q74 -127 40.5 -159Q7 -191 -52 -191Q-61 -191 -71.5 -189.5Q-82 -188 -91 -186L-79 -127Q-72 -128 -64 -129Q-56 -130 -48 -130Q-17 -130 -1.5 -113Q14 -96 21 -57Z" glyph-name="dotlessj" horiz-adv-x="202" unicode="ȷ" /><glyph d="M147 413 152 440Q165 518 207.5 558.5Q250 599 318 599Q333 599 347.5 597Q362 595 377 590L357 534Q345 538 334.5 539.5Q324 541 314 541Q276 541 251 515Q226 489 218 440L213 413H335L325 356H203L140 0H74L137 356H53L63 413ZM477 472 426 534L492 589L542 527ZM362 0 435 413H501L428 0Z" glyph-name="fi" horiz-adv-x="533" unicode="ﬁ" /><glyph d="M147 413 152 440Q165 518 207.5 558.5Q250 599 318 599Q333 599 347.5 597Q362 595 377 590L357 534Q345 538 334.5 539.5Q324 541 314 541Q276 541 251 515Q226 489 218 440L213 413H335L325 356H203L140 0H74L137 356H53L63 413ZM363 0 467 594H533L429 0Z" glyph-name="fl" horiz-adv-x="533" unicode="ﬂ" /><glyph d="M47 188 70 320Q88 419 144.5 469Q201 519 295 519Q388 519 432 465Q476 411 460 320L437 188Q428 135 408.5 101.5Q389 68 345 32L308 74Q337 100 350.5 125.5Q364 151 371 188L394 320Q406 389 379 425Q352 461 290 461Q227 461 187.5 425Q148 389 136 320L113 188Q102 127 127 93.5Q152 60 230 41Q282 28 314 7.5Q346 -13 385 -54Q412 -83 460 -98Q508 -113 587 -118L582 -177Q496 -173 436.5 -153.5Q377 -134 341 -98Q300 -57 273 -40.5Q246 -24 208 -14Q110 10 71.5 59.5Q33 109 47 188ZM804 163 848 413H914L841 0H790L785 44Q761 17 729 3Q697 -11 661 -11Q591 -11 560 31.5Q529 74 541 149L588 413H654L607 149Q598 98 615.5 72.5Q633 47 676 47Q725 47 759.5 78.5Q794 110 804 163Z" glyph-name="Q_u" horiz-adv-x="945" unicode="" /><glyph d="M148 186 318 186L275 426ZM-24 0 249 508H322L417 0H351L328 129H118L49 0ZM258 566 232 611L365 696L397 640Z" glyph-name="Aacute" horiz-adv-x="466" unicode="Á" /><glyph d="M148 186 318 186L275 426ZM-24 0 249 508H322L417 0H351L328 129H118L49 0ZM210 579 191 622L310 687L408 622L383 581L304 619Z" glyph-name="Acircumflex" horiz-adv-x="466" unicode="Â" /><glyph d="M148 186 318 186L275 426ZM-24 0 249 508H322L417 0H351L328 129H118L49 0ZM373 574 328 628L386 677L430 623ZM219 574 174 628L232 677L276 623Z" glyph-name="Adieresis" horiz-adv-x="466" unicode="Ä" /><glyph d="M148 186 318 186L275 426ZM-24 0 249 508H322L417 0H351L328 129H118L49 0ZM345 566 225 644L262 696L376 610Z" glyph-name="Agrave" horiz-adv-x="466" unicode="À" /><glyph d="M148 186 318 186L275 426ZM-24 0 249 508H322L417 0H351L328 129H118L49 0ZM227 623 228 633Q234 664 257 682.5Q280 701 314 701Q350 701 368.5 682Q387 663 381 633L380 623Q374 592 350.5 573.5Q327 555 292 555Q257 555 239 574Q221 593 227 623ZM334 623 335 632Q337 646 330.5 653.5Q324 661 309 661Q295 661 285.5 653.5Q276 646 274 632L273 623Q270 609 276 601.5Q282 594 297 594Q312 594 321.5 601.5Q331 609 334 623Z" glyph-name="Aring" horiz-adv-x="466" unicode="Å" /><glyph d="M148 186 318 186L275 426ZM-24 0 249 508H322L417 0H351L328 129H118L49 0ZM338 639Q347 639 352.5 645.5Q358 652 360 665H410Q403 627 384.5 607.5Q366 588 339 588Q330 588 319.5 590.5Q309 593 297 598Q282 605 272.5 608Q263 611 259 611Q251 611 246 605Q241 599 239 587H189Q196 625 213.5 644.5Q231 664 258 664Q268 664 278.5 661.5Q289 659 300 653Q315 646 324.5 642.5Q334 639 338 639Z" glyph-name="Atilde" horiz-adv-x="466" unicode="Ã" /><glyph d="M148 186 318 186L275 426ZM-24 0 249 508H322L417 0H351L328 129H118L49 0ZM302 629Q322 629 336 640Q350 651 358 673H406Q397 627 368.5 602.5Q340 578 297 578Q254 578 232.5 602.5Q211 627 212 673H260Q260 652 271 640.5Q282 629 302 629Z" glyph-name="Abreve" horiz-adv-x="466" unicode="Ă" /><glyph d="M148 186 318 186L275 426ZM-24 0 249 508H322L417 0H351L328 129H118L49 0ZM210 592 219 647H392L383 592Z" glyph-name="Amacron" horiz-adv-x="466" unicode="Ā" /><glyph d="M148 186 318 186L275 426ZM322 508 417 0Q382 -37 369.5 -54Q357 -71 354 -89Q351 -105 358 -112.5Q365 -120 383 -120L375 -166Q334 -166 313 -148Q292 -130 297 -98Q301 -78 311 -62Q321 -46 366 0H351L328 129H118L49 0H-24L249 508Z" glyph-name="Aogonek" horiz-adv-x="466" unicode="Ą" /><glyph d="M47 188 71 320Q88 419 144.5 469Q201 519 298 519Q335 519 368.5 511Q402 503 435 486L405 430Q375 446 347.5 453Q320 460 292 460Q227 460 188 424.5Q149 389 137 320L113 188Q102 121 128 85Q154 49 213 49Q242 49 271 56.5Q300 64 348 85L371 28Q313 3 279 -4Q245 -11 204 -11Q115 -11 73 42.5Q31 96 47 188ZM177 -176 133 -156L175 -48L228 -72Z" glyph-name="Ccedilla" horiz-adv-x="422" unicode="Ç" /><glyph d="M47 188 71 320Q88 419 144.5 469Q201 519 298 519Q335 519 368.5 511Q402 503 435 486L405 430Q375 446 347.5 453Q320 460 292 460Q227 460 188 424.5Q149 389 137 320L113 188Q102 121 128 85Q154 49 213 49Q242 49 271 56.5Q300 64 348 85L371 28Q313 3 279 -4Q245 -11 204 -11Q115 -11 73 42.5Q31 96 47 188ZM269 566 243 611L376 696L408 640Z" glyph-name="Cacute" horiz-adv-x="422" unicode="Ć" /><glyph d="M47 188 71 320Q88 419 144.5 469Q201 519 298 519Q335 519 368.5 511Q402 503 435 486L405 430Q375 446 347.5 453Q320 460 292 460Q227 460 188 424.5Q149 389 137 320L113 188Q102 121 128 85Q154 49 213 49Q242 49 271 56.5Q300 64 348 85L371 28Q313 3 279 -4Q245 -11 204 -11Q115 -11 73 42.5Q31 96 47 188ZM230 681 309 643L403 683L422 640L303 575L205 640Z" glyph-name="Ccaron" horiz-adv-x="422" unicode="Č" /><glyph d="M47 188 71 320Q88 419 144.5 469Q201 519 298 519Q335 519 368.5 511Q402 503 435 486L405 430Q375 446 347.5 453Q320 460 292 460Q227 460 188 424.5Q149 389 137 320L113 188Q102 121 128 85Q154 49 213 49Q242 49 271 56.5Q300 64 348 85L371 28Q313 3 279 -4Q245 -11 204 -11Q115 -11 73 42.5Q31 96 47 188ZM224 579 205 622L324 687L422 622L397 581L318 619Z" glyph-name="Ccircumflex" horiz-adv-x="422" unicode="Ĉ" /><glyph d="M47 188 71 320Q88 419 144.5 469Q201 519 298 519Q335 519 368.5 511Q402 503 435 486L405 430Q375 446 347.5 453Q320 460 292 460Q227 460 188 424.5Q149 389 137 320L113 188Q102 121 128 85Q154 49 213 49Q242 49 271 56.5Q300 64 348 85L371 28Q313 3 279 -4Q245 -11 204 -11Q115 -11 73 42.5Q31 96 47 188ZM304 567 253 629L319 684L369 622Z" glyph-name="Cdotaccent" horiz-adv-x="422" unicode="Ċ" /><glyph d="M31 0 121 508H263Q366 508 415 455Q464 402 447 309L427 199Q410 101 350.5 50.5Q291 0 191 0ZM361 199 381 309Q393 379 362 415Q331 451 258 451H177L107 57H196Q259 57 304 95Q349 133 361 199ZM205 681 284 643L378 683L397 640L278 575L180 640Z" glyph-name="Dcaron" horiz-adv-x="479" unicode="Ď" /><glyph d="M191 0 31 0L71 226H10L20 283H81L121 508H263Q366 508 415 455Q464 402 447 309L427 199Q410 101 350.5 50.5Q291 0 191 0ZM137 226 107 57H196Q259 57 304 95Q349 133 361 199L381 309Q393 379 362 415Q331 451 258 451H177L147 283H267L257 226Z" glyph-name="Dcroat" horiz-adv-x="479" unicode="Đ" /><glyph d="M31 0 121 508H417L407 451H177L148 285H354L344 228H138L107 57H344L334 0ZM240 566 214 611L347 696L379 640Z" glyph-name="Eacute" horiz-adv-x="411" unicode="É" /><glyph d="M31 0 121 508H417L407 451H177L148 285H354L344 228H138L107 57H344L334 0ZM192 579 173 622L292 687L390 622L365 581L286 619Z" glyph-name="Ecircumflex" horiz-adv-x="411" unicode="Ê" /><glyph d="M31 0 121 508H417L407 451H177L148 285H354L344 228H138L107 57H344L334 0ZM355 574 310 628L368 677L412 623ZM201 574 156 628L214 677L258 623Z" glyph-name="Edieresis" horiz-adv-x="411" unicode="Ë" /><glyph d="M31 0 121 508H417L407 451H177L148 285H354L344 228H138L107 57H344L334 0ZM327 566 207 644L244 696L358 610Z" glyph-name="Egrave" horiz-adv-x="411" unicode="È" /><glyph d="M31 0 121 508H417L407 451H177L148 285H354L344 228H138L107 57H344L334 0ZM300 629Q320 629 334 640Q348 651 356 673H404Q395 627 366.5 602.5Q338 578 295 578Q252 578 230.5 602.5Q209 627 210 673H258Q258 652 269 640.5Q280 629 300 629Z" glyph-name="Ebreve" horiz-adv-x="411" unicode="Ĕ" /><glyph d="M31 0 121 508H417L407 451H177L148 285H354L344 228H138L107 57H344L334 0ZM201 681 280 643L374 683L393 640L274 575L176 640Z" glyph-name="Ecaron" horiz-adv-x="411" unicode="Ě" /><glyph d="M31 0 121 508H417L407 451H177L148 285H354L344 228H138L107 57H344L334 0ZM275 567 224 629L290 684L340 622Z" glyph-name="Edotaccent" horiz-adv-x="411" unicode="Ė" /><glyph d="M31 0 121 508H417L407 451H177L148 285H354L344 228H138L107 57H344L334 0ZM192 592 201 647H374L365 592Z" glyph-name="Emacron" horiz-adv-x="411" unicode="Ē" /><glyph d="M182 -98Q186 -78 196 -62Q206 -46 251 0H31L121 508H417L407 451H177L148 285H354L344 228H138L107 57H344L334 0H302Q267 -37 254.5 -54Q242 -71 239 -89Q236 -105 243 -112.5Q250 -120 268 -120L260 -166Q219 -166 198 -148Q177 -130 182 -98Z" glyph-name="Eogonek" horiz-adv-x="411" unicode="Ę" /><glyph d="M47 188 71 320Q88 419 144.5 469Q201 519 298 519Q335 519 368.5 511Q402 503 435 486L405 430Q375 446 347.5 453Q320 460 292 460Q227 460 188 424.5Q149 389 137 320L113 188Q102 121 128 85Q154 49 213 49Q247 49 275.5 55.5Q304 62 326 75L350 214H248L258 271H424L382 35Q344 11 301 0Q258 -11 204 -11Q117 -11 74.5 43.5Q32 98 47 188ZM310 629Q330 629 344 640Q358 651 366 673H414Q405 627 376.5 602.5Q348 578 305 578Q262 578 240.5 602.5Q219 627 220 673H268Q268 652 279 640.5Q290 629 310 629Z" glyph-name="Gbreve" horiz-adv-x="471" unicode="Ğ" /><glyph d="M47 188 71 320Q88 419 144.5 469Q201 519 298 519Q335 519 368.5 511Q402 503 435 486L405 430Q375 446 347.5 453Q320 460 292 460Q227 460 188 424.5Q149 389 137 320L113 188Q102 121 128 85Q154 49 213 49Q247 49 275.5 55.5Q304 62 326 75L350 214H248L258 271H424L382 35Q344 11 301 0Q258 -11 204 -11Q117 -11 74.5 43.5Q32 98 47 188ZM224 579 205 622L324 687L422 622L397 581L318 619Z" glyph-name="Gcircumflex" horiz-adv-x="471" unicode="Ĝ" /><glyph d="M47 188 71 320Q88 419 144.5 469Q201 519 298 519Q335 519 368.5 511Q402 503 435 486L405 430Q375 446 347.5 453Q320 460 292 460Q227 460 188 424.5Q149 389 137 320L113 188Q102 121 128 85Q154 49 213 49Q247 49 275.5 55.5Q304 62 326 75L350 214H248L258 271H424L382 35Q344 11 301 0Q258 -11 204 -11Q117 -11 74.5 43.5Q32 98 47 188ZM177 -176 133 -156L175 -48L228 -72Z" glyph-name="Gcommaaccent" horiz-adv-x="471" unicode="Ģ" /><glyph d="M47 188 71 320Q88 419 144.5 469Q201 519 298 519Q335 519 368.5 511Q402 503 435 486L405 430Q375 446 347.5 453Q320 460 292 460Q227 460 188 424.5Q149 389 137 320L113 188Q102 121 128 85Q154 49 213 49Q247 49 275.5 55.5Q304 62 326 75L350 214H248L258 271H424L382 35Q344 11 301 0Q258 -11 204 -11Q117 -11 74.5 43.5Q32 98 47 188ZM301 567 250 629L316 684L366 622Z" glyph-name="Gdotaccent" horiz-adv-x="471" unicode="Ġ" /><glyph d="M150 283 382 283L396 361H164ZM405 413 422 508H488L471 413H533L524 361H462L398 0H332L372 226H140L100 0H34L98 361H36L45 413H107L124 508H190L173 413Z" glyph-name="Hbar" horiz-adv-x="505" unicode="Ħ" /><glyph d="M379 283 419 508H485L395 0H329L369 226H137L97 0H31L121 508H187L147 283ZM232 579 213 622L332 687L430 622L405 581L326 619Z" glyph-name="Hcircumflex" horiz-adv-x="499" unicode="Ĥ" /><glyph d="M31 0 121 508H187L97 0ZM129 566 103 611L236 696L268 640Z" glyph-name="Iacute" horiz-adv-x="201" unicode="Í" /><glyph d="M31 0 121 508H187L97 0ZM81 579 62 622L181 687L279 622L254 581L175 619Z" glyph-name="Icircumflex" horiz-adv-x="201" unicode="Î" /><glyph d="M31 0 121 508H187L97 0ZM244 574 199 628L257 677L301 623ZM90 574 45 628L103 677L147 623Z" glyph-name="Idieresis" horiz-adv-x="201" unicode="Ï" /><glyph d="M31 0 121 508H187L97 0ZM216 566 96 644L133 696L247 610Z" glyph-name="Igrave" horiz-adv-x="201" unicode="Ì" /><glyph d="M31 0 121 508H187L97 0ZM175 629Q195 629 209 640Q223 651 231 673H279Q270 627 241.5 602.5Q213 578 170 578Q127 578 105.5 602.5Q84 627 85 673H133Q133 652 144 640.5Q155 629 175 629Z" glyph-name="Ibreve" horiz-adv-x="201" unicode="Ĭ" /><glyph d="M31 0 121 508H187L97 0ZM164 567 113 629L179 684L229 622Z" glyph-name="Idotaccent" horiz-adv-x="201" unicode="İ" /><glyph d="M31 0 121 508H187L97 0ZM81 592 90 647H263L254 592Z" glyph-name="Imacron" horiz-adv-x="201" unicode="Ī" /><glyph d="M187 508 97 0Q62 -37 49.5 -54Q37 -71 34 -89Q31 -105 38 -112.5Q45 -120 63 -120L55 -166Q14 -166 -7 -148Q-28 -130 -23 -98Q-19 -78 -9 -62Q1 -46 46 0H31L121 508Z" glyph-name="Iogonek" horiz-adv-x="201" unicode="Į" /><glyph d="M31 0 121 508H187L97 0ZM212 639Q221 639 226.5 645.5Q232 652 234 665H284Q277 627 258.5 607.5Q240 588 213 588Q204 588 193.5 590.5Q183 593 171 598Q156 605 146.5 608Q137 611 133 611Q125 611 120 605Q115 599 113 587H63Q70 625 87.5 644.5Q105 664 132 664Q142 664 152.5 661.5Q163 659 174 653Q189 646 198.5 642.5Q208 639 212 639Z" glyph-name="Itilde" horiz-adv-x="201" unicode="Ĩ" /><glyph d="M191 172 251 508H317L257 172Q242 82 190.5 35.5Q139 -11 55 -11Q33 -11 12.5 -7.5Q-8 -4 -24 2L-4 59Q10 55 24.5 53Q39 51 58 51Q112 51 146.5 82Q181 113 191 172ZM211 579 192 622L311 687L409 622L384 581L305 619Z" glyph-name="Jcircumflex" horiz-adv-x="326" unicode="Ĵ" /><glyph d="M31 0 121 508H187L97 0ZM392 172 452 508H518L458 172Q443 82 391.5 35.5Q340 -11 256 -11Q234 -11 213.5 -7.5Q193 -4 177 2L197 59Q211 55 225.5 53Q240 51 259 51Q313 51 347.5 82Q382 113 392 172Z" glyph-name="IJ" horiz-adv-x="527" unicode="Ĳ" /><glyph d="M137 229 389 508H473L285 301L396 0L323 -1L234 245L118 118L97 0H31L121 508H187ZM173 -176 129 -156L171 -48L224 -72Z" glyph-name="Kcommaaccent" horiz-adv-x="434" unicode="Ķ" /><glyph d="M31 0 121 508H187L108 59H328L317 0ZM129 566 103 611L236 696L268 640Z" glyph-name="Lacute" horiz-adv-x="376" unicode="Ĺ" /><glyph d="M31 0 121 508H187L108 59H328L317 0ZM272 378 231 394Q247 444 257 477Q267 510 271 526L327 509Q315 477 302 446Q289 415 272 378Z" glyph-name="Lcaron" horiz-adv-x="376" unicode="Ľ" /><glyph d="M31 0 121 508H187L108 59H328L317 0ZM135 -176 91 -156L133 -48L186 -72Z" glyph-name="Lcommaaccent" horiz-adv-x="376" unicode="Ļ" /><glyph d="M187 508 108 59H328L317 0H31L122 508ZM291 196 240 258L306 313L356 251Z" glyph-name="Ldot" horiz-adv-x="376" unicode="Ŀ" /><glyph d="M350 121 418 508H484L391 -21Q378 -91 344.5 -123Q311 -155 252 -155Q243 -155 232.5 -153.5Q222 -152 213 -150L225 -91Q232 -92 240 -93Q248 -94 256 -94Q287 -94 302.5 -77Q318 -60 325 -21L328 -4L171 414L98 0H32L121 508H204Z" glyph-name="Eng" horiz-adv-x="499" unicode="Ŋ" /><glyph d="M347 89 421 508H484L394 0H316L169 416L96 0H31L121 508H200ZM358 639Q367 639 372.5 645.5Q378 652 380 665H430Q423 627 404.5 607.5Q386 588 359 588Q350 588 339.5 590.5Q329 593 317 598Q302 605 292.5 608Q283 611 279 611Q271 611 266 605Q261 599 259 587H209Q216 625 233.5 644.5Q251 664 278 664Q288 664 298.5 661.5Q309 659 320 653Q335 646 344.5 642.5Q354 639 358 639Z" glyph-name="Ntilde" horiz-adv-x="498" unicode="Ñ" /><glyph d="M347 89 421 508H484L394 0H316L169 416L96 0H31L121 508H200ZM278 566 252 611L385 696L417 640Z" glyph-name="Nacute" horiz-adv-x="498" unicode="Ń" /><glyph d="M347 89 421 508H484L394 0H316L169 416L96 0H31L121 508H200ZM239 681 318 643L412 683L431 640L312 575L214 640Z" glyph-name="Ncaron" horiz-adv-x="498" unicode="Ň" /><glyph d="M347 89 421 508H484L394 0H316L169 416L96 0H31L121 508H200ZM174 -176 130 -156L172 -48L225 -72Z" glyph-name="Ncommaaccent" horiz-adv-x="498" unicode="Ņ" /><glyph d="M47 188 71 320Q88 418 144.5 468.5Q201 519 296 519Q388 519 432.5 465.5Q477 412 461 320L437 188Q420 91 363 40Q306 -11 212 -11Q120 -11 75.5 43Q31 97 47 188ZM371 188 395 320Q407 388 380 424.5Q353 461 290 461Q228 461 188.5 425Q149 389 137 320L113 188Q102 120 129 84Q156 48 218 48Q280 48 320 84Q360 120 371 188ZM274 566 248 611L381 696L413 640Z" glyph-name="Oacute" horiz-adv-x="491" unicode="Ó" /><glyph d="M47 188 71 320Q88 418 144.5 468.5Q201 519 296 519Q388 519 432.5 465.5Q477 412 461 320L437 188Q420 91 363 40Q306 -11 212 -11Q120 -11 75.5 43Q31 97 47 188ZM371 188 395 320Q407 388 380 424.5Q353 461 290 461Q228 461 188.5 425Q149 389 137 320L113 188Q102 120 129 84Q156 48 218 48Q280 48 320 84Q360 120 371 188ZM226 579 207 622L326 687L424 622L399 581L320 619Z" glyph-name="Ocircumflex" horiz-adv-x="491" unicode="Ô" /><glyph d="M47 188 71 320Q88 418 144.5 468.5Q201 519 296 519Q388 519 432.5 465.5Q477 412 461 320L437 188Q420 91 363 40Q306 -11 212 -11Q120 -11 75.5 43Q31 97 47 188ZM371 188 395 320Q407 388 380 424.5Q353 461 290 461Q228 461 188.5 425Q149 389 137 320L113 188Q102 120 129 84Q156 48 218 48Q280 48 320 84Q360 120 371 188ZM389 574 344 628L402 677L446 623ZM235 574 190 628L248 677L292 623Z" glyph-name="Odieresis" horiz-adv-x="491" unicode="Ö" /><glyph d="M47 188 71 320Q88 418 144.5 468.5Q201 519 296 519Q388 519 432.5 465.5Q477 412 461 320L437 188Q420 91 363 40Q306 -11 212 -11Q120 -11 75.5 43Q31 97 47 188ZM371 188 395 320Q407 388 380 424.5Q353 461 290 461Q228 461 188.5 425Q149 389 137 320L113 188Q102 120 129 84Q156 48 218 48Q280 48 320 84Q360 120 371 188ZM361 566 241 644L278 696L392 610Z" glyph-name="Ograve" horiz-adv-x="491" unicode="Ò" /><glyph d="M47 188 71 320Q88 418 144.5 468.5Q201 519 296 519Q388 519 432.5 465.5Q477 412 461 320L437 188Q420 91 363 40Q306 -11 212 -11Q120 -11 75.5 43Q31 97 47 188ZM371 188 395 320Q407 388 380 424.5Q353 461 290 461Q228 461 188.5 425Q149 389 137 320L113 188Q102 120 129 84Q156 48 218 48Q280 48 320 84Q360 120 371 188ZM354 639Q363 639 368.5 645.5Q374 652 376 665H426Q419 627 400.5 607.5Q382 588 355 588Q346 588 335.5 590.5Q325 593 313 598Q298 605 288.5 608Q279 611 275 611Q267 611 262 605Q257 599 255 587H205Q212 625 229.5 644.5Q247 664 274 664Q284 664 294.5 661.5Q305 659 316 653Q331 646 340.5 642.5Q350 639 354 639Z" glyph-name="Otilde" horiz-adv-x="491" unicode="Õ" /><glyph d="M47 188 71 320Q88 418 144.5 468.5Q201 519 296 519Q388 519 432.5 465.5Q477 412 461 320L437 188Q420 91 363 40Q306 -11 212 -11Q120 -11 75.5 43Q31 97 47 188ZM371 188 395 320Q407 388 380 424.5Q353 461 290 461Q228 461 188.5 425Q149 389 137 320L113 188Q102 120 129 84Q156 48 218 48Q280 48 320 84Q360 120 371 188ZM320 629Q340 629 354 640Q368 651 376 673H424Q415 627 386.5 602.5Q358 578 315 578Q272 578 250.5 602.5Q229 627 230 673H278Q278 652 289 640.5Q300 629 320 629Z" glyph-name="Obreve" horiz-adv-x="491" unicode="Ŏ" /><glyph d="M47 188 71 320Q88 418 144.5 468.5Q201 519 296 519Q388 519 432.5 465.5Q477 412 461 320L437 188Q420 91 363 40Q306 -11 212 -11Q120 -11 75.5 43Q31 97 47 188ZM371 188 395 320Q407 388 380 424.5Q353 461 290 461Q228 461 188.5 425Q149 389 137 320L113 188Q102 120 129 84Q156 48 218 48Q280 48 320 84Q360 120 371 188ZM365 566 332 600L420 684L458 643ZM227 566 194 600L282 684L320 643Z" glyph-name="Ohungarumlaut" horiz-adv-x="491" unicode="Ő" /><glyph d="M47 188 71 320Q88 418 144.5 468.5Q201 519 296 519Q388 519 432.5 465.5Q477 412 461 320L437 188Q420 91 363 40Q306 -11 212 -11Q120 -11 75.5 43Q31 97 47 188ZM371 188 395 320Q407 388 380 424.5Q353 461 290 461Q228 461 188.5 425Q149 389 137 320L113 188Q102 120 129 84Q156 48 218 48Q280 48 320 84Q360 120 371 188ZM226 592 235 647H408L399 592Z" glyph-name="Omacron" horiz-adv-x="491" unicode="Ō" /><glyph d="M31 0 121 508H261Q346 508 387 464.5Q428 421 415 348L410 321Q400 268 371.5 230Q343 192 300 175L366 0H295L236 163Q217 163 199.5 166.5Q182 170 164 177L180 227Q199 223 210 221.5Q221 220 232 220Q277 220 306 246Q335 272 344 321L349 348Q358 402 332.5 426.5Q307 451 241 451H177L97 0ZM228 566 202 611L335 696L367 640Z" glyph-name="Racute" horiz-adv-x="442" unicode="Ŕ" /><glyph d="M31 0 121 508H261Q346 508 387 464.5Q428 421 415 348L410 321Q400 268 371.5 230Q343 192 300 175L366 0H295L236 163Q217 163 199.5 166.5Q182 170 164 177L180 227Q199 223 210 221.5Q221 220 232 220Q277 220 306 246Q335 272 344 321L349 348Q358 402 332.5 426.5Q307 451 241 451H177L97 0ZM189 681 268 643L362 683L381 640L262 575L164 640Z" glyph-name="Rcaron" horiz-adv-x="442" unicode="Ř" /><glyph d="M31 0 121 508H261Q346 508 387 464.5Q428 421 415 348L410 321Q400 268 371.5 230Q343 192 300 175L366 0H295L236 163Q217 163 199.5 166.5Q182 170 164 177L180 227Q199 223 210 221.5Q221 220 232 220Q277 220 306 246Q335 272 344 321L349 348Q358 402 332.5 426.5Q307 451 241 451H177L97 0ZM163 -176 119 -156L161 -48L214 -72Z" glyph-name="Rcommaaccent" horiz-adv-x="442" unicode="Ŗ" /><glyph d="M171 231Q98 279 77 317Q56 355 66 403Q77 456 125.5 487.5Q174 519 244 519Q281 519 314.5 511Q348 503 381 486L351 430Q324 444 294.5 452Q265 460 238 460Q193 460 164.5 441Q136 422 130 388Q127 368 132.5 352Q138 336 153 321Q159 315 167 309Q175 303 214 277Q292 225 312 188Q332 151 321 103Q309 48 259.5 18.5Q210 -11 131 -11Q98 -11 65.5 -4.5Q33 2 -6 17L17 74Q52 61 81.5 55Q111 49 142 49Q194 49 222 66.5Q250 84 257 120Q260 139 254 155Q248 171 232 186Q226 193 217 199.5Q208 206 171 231ZM174 681 253 643L347 683L366 640L247 575L149 640Z" glyph-name="Scaron" horiz-adv-x="368" unicode="Š" /><glyph d="M171 231Q98 279 77 317Q56 355 66 403Q77 456 125.5 487.5Q174 519 244 519Q281 519 314.5 511Q348 503 381 486L351 430Q324 444 294.5 452Q265 460 238 460Q193 460 164.5 441Q136 422 130 388Q127 368 132.5 352Q138 336 153 321Q159 315 167 309Q175 303 214 277Q292 225 312 188Q332 151 321 103Q309 48 259.5 18.5Q210 -11 131 -11Q98 -11 65.5 -4.5Q33 2 -6 17L17 74Q52 61 81.5 55Q111 49 142 49Q194 49 222 66.5Q250 84 257 120Q260 139 254 155Q248 171 232 186Q226 193 217 199.5Q208 206 171 231ZM213 566 187 611L320 696L352 640Z" glyph-name="Sacute" horiz-adv-x="368" unicode="Ś" /><glyph d="M171 231Q98 279 77 317Q56 355 66 403Q77 456 125.5 487.5Q174 519 244 519Q281 519 314.5 511Q348 503 381 486L351 430Q324 444 294.5 452Q265 460 238 460Q193 460 164.5 441Q136 422 130 388Q127 368 132.5 352Q138 336 153 321Q159 315 167 309Q175 303 214 277Q292 225 312 188Q332 151 321 103Q309 48 259.5 18.5Q210 -11 131 -11Q98 -11 65.5 -4.5Q33 2 -6 17L17 74Q52 61 81.5 55Q111 49 142 49Q194 49 222 66.5Q250 84 257 120Q260 139 254 155Q248 171 232 186Q226 193 217 199.5Q208 206 171 231ZM167 579 148 622L267 687L365 622L340 581L261 619Z" glyph-name="Scircumflex" horiz-adv-x="368" unicode="Ŝ" /><glyph d="M171 231Q98 279 77 317Q56 355 66 403Q77 456 125.5 487.5Q174 519 244 519Q281 519 314.5 511Q348 503 381 486L351 430Q324 444 294.5 452Q265 460 238 460Q193 460 164.5 441Q136 422 130 388Q127 368 132.5 352Q138 336 153 321Q159 315 167 309Q175 303 214 277Q292 225 312 188Q332 151 321 103Q309 48 259.5 18.5Q210 -11 131 -11Q98 -11 65.5 -4.5Q33 2 -6 17L17 74Q52 61 81.5 55Q111 49 142 49Q194 49 222 66.5Q250 84 257 120Q260 139 254 155Q248 171 232 186Q226 193 217 199.5Q208 206 171 231ZM100 -176 56 -156L98 -48L151 -72Z" glyph-name="Scedilla" horiz-adv-x="368" unicode="Ş" /><glyph d="M171 231Q98 279 77 317Q56 355 66 403Q77 456 125.5 487.5Q174 519 244 519Q281 519 314.5 511Q348 503 381 486L351 430Q324 444 294.5 452Q265 460 238 460Q193 460 164.5 441Q136 422 130 388Q127 368 132.5 352Q138 336 153 321Q159 315 167 309Q175 303 214 277Q292 225 312 188Q332 151 321 103Q309 48 259.5 18.5Q210 -11 131 -11Q98 -11 65.5 -4.5Q33 2 -6 17L17 74Q52 61 81.5 55Q111 49 142 49Q194 49 222 66.5Q250 84 257 120Q260 139 254 155Q248 171 232 186Q226 193 217 199.5Q208 206 171 231ZM100 -176 56 -156L98 -48L151 -72Z" glyph-name="uni0218" horiz-adv-x="368" unicode="Ș" /><glyph d="M67 451 77 508H435L425 451H279L261 353H346L337 301H252L199 0H133L186 301H101L110 353H195L213 451Z" glyph-name="Tbar" horiz-adv-x="406" unicode="Ŧ" /><glyph d="M67 451 77 508H435L425 451H279L199 0H133L213 451ZM192 681 271 643L365 683L384 640L265 575L167 640Z" glyph-name="Tcaron" horiz-adv-x="406" unicode="Ť" /><glyph d="M67 451 77 508H435L425 451H279L199 0H133L213 451ZM132 -176 88 -156L130 -48L183 -72Z" glyph-name="uni0162" horiz-adv-x="406" unicode="Ţ" /><glyph d="M67 451 77 508H435L425 451H279L199 0H133L213 451ZM132 -176 88 -156L130 -48L183 -72Z" glyph-name="uni021A" horiz-adv-x="406" unicode="Ț" /><glyph d="M363 188 419 508H485L429 188Q410 85 358 37Q306 -11 215 -11Q123 -11 82.5 41.5Q42 94 59 188L115 508H181L125 188Q112 117 135 82.5Q158 48 219 48Q279 48 314.5 82.5Q350 117 363 188ZM275 566 249 611L382 696L414 640Z" glyph-name="Uacute" horiz-adv-x="494" unicode="Ú" /><glyph d="M363 188 419 508H485L429 188Q410 85 358 37Q306 -11 215 -11Q123 -11 82.5 41.5Q42 94 59 188L115 508H181L125 188Q112 117 135 82.5Q158 48 219 48Q279 48 314.5 82.5Q350 117 363 188ZM227 579 208 622L327 687L425 622L400 581L321 619Z" glyph-name="Ucircumflex" horiz-adv-x="494" unicode="Û" /><glyph d="M363 188 419 508H485L429 188Q410 85 358 37Q306 -11 215 -11Q123 -11 82.5 41.5Q42 94 59 188L115 508H181L125 188Q112 117 135 82.5Q158 48 219 48Q279 48 314.5 82.5Q350 117 363 188ZM390 574 345 628L403 677L447 623ZM236 574 191 628L249 677L293 623Z" glyph-name="Udieresis" horiz-adv-x="494" unicode="Ü" /><glyph d="M363 188 419 508H485L429 188Q410 85 358 37Q306 -11 215 -11Q123 -11 82.5 41.5Q42 94 59 188L115 508H181L125 188Q112 117 135 82.5Q158 48 219 48Q279 48 314.5 82.5Q350 117 363 188ZM362 566 242 644L279 696L393 610Z" glyph-name="Ugrave" horiz-adv-x="494" unicode="Ù" /><glyph d="M363 188 419 508H485L429 188Q410 85 358 37Q306 -11 215 -11Q123 -11 82.5 41.5Q42 94 59 188L115 508H181L125 188Q112 117 135 82.5Q158 48 219 48Q279 48 314.5 82.5Q350 117 363 188ZM322 629Q342 629 356 640Q370 651 378 673H426Q417 627 388.5 602.5Q360 578 317 578Q274 578 252.5 602.5Q231 627 232 673H280Q280 652 291 640.5Q302 629 322 629Z" glyph-name="Ubreve" horiz-adv-x="494" unicode="Ŭ" /><glyph d="M363 188 419 508H485L429 188Q410 85 358 37Q306 -11 215 -11Q123 -11 82.5 41.5Q42 94 59 188L115 508H181L125 188Q112 117 135 82.5Q158 48 219 48Q279 48 314.5 82.5Q350 117 363 188ZM366 566 333 600L421 684L459 643ZM228 566 195 600L283 684L321 643Z" glyph-name="Uhungarumlaut" horiz-adv-x="494" unicode="Ű" /><glyph d="M363 188 419 508H485L429 188Q410 85 358 37Q306 -11 215 -11Q123 -11 82.5 41.5Q42 94 59 188L115 508H181L125 188Q112 117 135 82.5Q158 48 219 48Q279 48 314.5 82.5Q350 117 363 188ZM227 592 236 647H409L400 592Z" glyph-name="Umacron" horiz-adv-x="494" unicode="Ū" /><glyph d="M250 -120 242 -166Q201 -166 180 -148Q159 -130 164 -98Q168 -79 177.5 -63Q187 -47 222 -11Q220 -11 218.5 -11Q217 -11 215 -11Q123 -11 82.5 41.5Q42 94 59 188L115 508H181L125 188Q112 117 135 82.5Q158 48 219 48Q279 48 314.5 82.5Q350 117 363 188L419 508H485L429 188Q414 105 378 58Q342 11 280 -4Q247 -39 235.5 -55.5Q224 -72 221 -89Q218 -105 225 -112.5Q232 -120 250 -120Z" glyph-name="Uogonek" horiz-adv-x="494" unicode="Ų" /><glyph d="M363 188 419 508H485L429 188Q410 85 358 37Q306 -11 215 -11Q123 -11 82.5 41.5Q42 94 59 188L115 508H181L125 188Q112 117 135 82.5Q158 48 219 48Q279 48 314.5 82.5Q350 117 363 188ZM244 623 245 633Q251 664 274 682.5Q297 701 331 701Q367 701 385.5 682Q404 663 398 633L397 623Q391 592 367.5 573.5Q344 555 309 555Q274 555 256 574Q238 593 244 623ZM351 623 352 632Q354 646 347.5 653.5Q341 661 326 661Q312 661 302.5 653.5Q293 646 291 632L290 623Q287 609 293 601.5Q299 594 314 594Q329 594 338.5 601.5Q348 609 351 623Z" glyph-name="Uring" horiz-adv-x="494" unicode="Ů" /><glyph d="M363 188 419 508H485L429 188Q410 85 358 37Q306 -11 215 -11Q123 -11 82.5 41.5Q42 94 59 188L115 508H181L125 188Q112 117 135 82.5Q158 48 219 48Q279 48 314.5 82.5Q350 117 363 188ZM359 639Q368 639 373.5 645.5Q379 652 381 665H431Q424 627 405.5 607.5Q387 588 360 588Q351 588 340.5 590.5Q330 593 318 598Q303 605 293.5 608Q284 611 280 611Q272 611 267 605Q262 599 260 587H210Q217 625 234.5 644.5Q252 664 279 664Q289 664 299.5 661.5Q310 659 321 653Q336 646 345.5 642.5Q355 639 359 639Z" glyph-name="Utilde" horiz-adv-x="494" unicode="Ũ" /><glyph d="M443 66 565 508H634L494 0H399L328 285L156 0H60L100 508H163L129 66L305 363H371ZM342 566 316 611L449 696L481 640Z" glyph-name="Wacute" horiz-adv-x="628" unicode="Ẃ" /><glyph d="M443 66 565 508H634L494 0H399L328 285L156 0H60L100 508H163L129 66L305 363H371ZM294 579 275 622L394 687L492 622L467 581L388 619Z" glyph-name="Wcircumflex" horiz-adv-x="628" unicode="Ŵ" /><glyph d="M443 66 565 508H634L494 0H399L328 285L156 0H60L100 508H163L129 66L305 363H371ZM457 574 412 628L470 677L514 623ZM303 574 258 628L316 677L360 623Z" glyph-name="Wdieresis" horiz-adv-x="628" unicode="Ẅ" /><glyph d="M443 66 565 508H634L494 0H399L328 285L156 0H60L100 508H163L129 66L305 363H371ZM429 566 309 644L346 696L460 610Z" glyph-name="Wgrave" horiz-adv-x="628" unicode="Ẁ" /><glyph d="M202 223 380 508H454L226 150L199 0H133L160 150L58 508H124ZM231 566 205 611L338 696L370 640Z" glyph-name="Yacute" horiz-adv-x="406" unicode="Ý" /><glyph d="M202 223 380 508H454L226 150L199 0H133L160 150L58 508H124ZM346 574 301 628L359 677L403 623ZM192 574 147 628L205 677L249 623Z" glyph-name="Ydieresis" horiz-adv-x="406" unicode="Ÿ" /><glyph d="M202 223 380 508H454L226 150L199 0H133L160 150L58 508H124ZM183 579 164 622L283 687L381 622L356 581L277 619Z" glyph-name="Ycircumflex" horiz-adv-x="406" unicode="Ŷ" /><glyph d="M202 223 380 508H454L226 150L199 0H133L160 150L58 508H124ZM318 566 198 644L235 696L349 610Z" glyph-name="Ygrave" horiz-adv-x="406" unicode="Ỳ" /><glyph d="M79 451 89 508H412L402 451L76 57H338L328 0H-15L-5 57L322 451ZM178 681 257 643L351 683L370 640L251 575L153 640Z" glyph-name="Zcaron" horiz-adv-x="394" unicode="Ž" /><glyph d="M79 451 89 508H412L402 451L76 57H338L328 0H-15L-5 57L322 451ZM217 566 191 611L324 696L356 640Z" glyph-name="Zacute" horiz-adv-x="394" unicode="Ź" /><glyph d="M79 451 89 508H412L402 451L76 57H338L328 0H-15L-5 57L322 451ZM252 567 201 629L267 684L317 622Z" glyph-name="Zdotaccent" horiz-adv-x="394" unicode="Ż" /><glyph d="M311 181 323 250Q332 304 311.5 335Q291 366 245 366Q199 366 170 340.5Q141 315 132 265L111 149Q102 99 121 73Q140 47 185 47Q235 47 267 81Q299 115 311 181ZM45 149 66 265Q79 338 125.5 381Q172 424 240 424Q276 424 304 409.5Q332 395 346 370L367 413H418L346 0H295L291 44Q266 16 236 2.5Q206 -11 171 -11Q99 -11 65.5 33Q32 77 45 149ZM213 471 187 516L320 601L352 545Z" glyph-name="aacute" horiz-adv-x="450" unicode="á" /><glyph d="M311 181 323 250Q332 304 311.5 335Q291 366 245 366Q199 366 170 340.5Q141 315 132 265L111 149Q102 99 121 73Q140 47 185 47Q235 47 267 81Q299 115 311 181ZM45 149 66 265Q79 338 125.5 381Q172 424 240 424Q276 424 304 409.5Q332 395 346 370L367 413H418L346 0H295L291 44Q266 16 236 2.5Q206 -11 171 -11Q99 -11 65.5 33Q32 77 45 149ZM165 484 146 527L265 592L363 527L338 486L259 524Z" glyph-name="acircumflex" horiz-adv-x="450" unicode="â" /><glyph d="M311 181 323 250Q332 304 311.5 335Q291 366 245 366Q199 366 170 340.5Q141 315 132 265L111 149Q102 99 121 73Q140 47 185 47Q235 47 267 81Q299 115 311 181ZM45 149 66 265Q79 338 125.5 381Q172 424 240 424Q276 424 304 409.5Q332 395 346 370L367 413H418L346 0H295L291 44Q266 16 236 2.5Q206 -11 171 -11Q99 -11 65.5 33Q32 77 45 149ZM328 479 283 533L341 582L385 528ZM174 479 129 533L187 582L231 528Z" glyph-name="adieresis" horiz-adv-x="450" unicode="ä" /><glyph d="M311 181 323 250Q332 304 311.5 335Q291 366 245 366Q199 366 170 340.5Q141 315 132 265L111 149Q102 99 121 73Q140 47 185 47Q235 47 267 81Q299 115 311 181ZM45 149 66 265Q79 338 125.5 381Q172 424 240 424Q276 424 304 409.5Q332 395 346 370L367 413H418L346 0H295L291 44Q266 16 236 2.5Q206 -11 171 -11Q99 -11 65.5 33Q32 77 45 149ZM300 471 180 549L217 601L331 515Z" glyph-name="agrave" horiz-adv-x="450" unicode="à" /><glyph d="M311 181 323 250Q332 304 311.5 335Q291 366 245 366Q199 366 170 340.5Q141 315 132 265L111 149Q102 99 121 73Q140 47 185 47Q235 47 267 81Q299 115 311 181ZM45 149 66 265Q79 338 125.5 381Q172 424 240 424Q276 424 304 409.5Q332 395 346 370L367 413H418L346 0H295L291 44Q266 16 236 2.5Q206 -11 171 -11Q99 -11 65.5 33Q32 77 45 149ZM182 528 183 538Q189 569 212 587.5Q235 606 269 606Q305 606 323.5 587Q342 568 336 538L335 528Q329 497 305.5 478.5Q282 460 247 460Q212 460 194 479Q176 498 182 528ZM289 528 290 537Q292 551 285.5 558.5Q279 566 264 566Q250 566 240.5 558.5Q231 551 229 537L228 528Q225 514 231 506.5Q237 499 252 499Q267 499 276.5 506.5Q286 514 289 528Z" glyph-name="aring" horiz-adv-x="450" unicode="å" /><glyph d="M311 181 323 250Q332 304 311.5 335Q291 366 245 366Q199 366 170 340.5Q141 315 132 265L111 149Q102 99 121 73Q140 47 185 47Q235 47 267 81Q299 115 311 181ZM45 149 66 265Q79 338 125.5 381Q172 424 240 424Q276 424 304 409.5Q332 395 346 370L367 413H418L346 0H295L291 44Q266 16 236 2.5Q206 -11 171 -11Q99 -11 65.5 33Q32 77 45 149ZM293 544Q302 544 307.5 550.5Q313 557 315 570H365Q358 532 339.5 512.5Q321 493 294 493Q285 493 274.5 495.5Q264 498 252 503Q237 510 227.5 513Q218 516 214 516Q206 516 201 510Q196 504 194 492H144Q151 530 168.5 549.5Q186 569 213 569Q223 569 233.5 566.5Q244 564 255 558Q270 551 279.5 547.5Q289 544 293 544Z" glyph-name="atilde" horiz-adv-x="450" unicode="ã" /><glyph d="M311 181 323 250Q332 304 311.5 335Q291 366 245 366Q199 366 170 340.5Q141 315 132 265L111 149Q102 99 121 73Q140 47 185 47Q235 47 267 81Q299 115 311 181ZM45 149 66 265Q79 338 125.5 381Q172 424 240 424Q276 424 304 409.5Q332 395 346 370L367 413H418L346 0H295L291 44Q266 16 236 2.5Q206 -11 171 -11Q99 -11 65.5 33Q32 77 45 149ZM257 534Q277 534 291 545Q305 556 313 578H361Q352 532 323.5 507.5Q295 483 252 483Q209 483 187.5 507.5Q166 532 167 578H215Q215 557 226 545.5Q237 534 257 534Z" glyph-name="abreve" horiz-adv-x="450" unicode="ă" /><glyph d="M311 181 323 250Q332 304 311.5 335Q291 366 245 366Q199 366 170 340.5Q141 315 132 265L111 149Q102 99 121 73Q140 47 185 47Q235 47 267 81Q299 115 311 181ZM45 149 66 265Q79 338 125.5 381Q172 424 240 424Q276 424 304 409.5Q332 395 346 370L367 413H418L346 0H295L291 44Q266 16 236 2.5Q206 -11 171 -11Q99 -11 65.5 33Q32 77 45 149ZM165 497 174 552H347L338 497Z" glyph-name="amacron" horiz-adv-x="450" unicode="ā" /><glyph d="M311 181 323 250Q332 304 311.5 335Q291 366 245 366Q199 366 170 340.5Q141 315 132 265L111 149Q102 99 121 73Q140 47 185 47Q235 47 267 81Q299 115 311 181ZM226 -98Q230 -78 240 -62Q250 -46 295 0L291 44Q266 16 236 2.5Q206 -11 171 -11Q99 -11 65.5 33Q32 77 45 149L66 265Q79 338 125.5 381Q172 424 240 424Q276 424 304 409.5Q332 395 346 370L367 413H418L346 0Q311 -37 298.5 -54Q286 -71 283 -89Q280 -105 287 -112.5Q294 -120 312 -120L304 -166Q263 -166 242 -148Q221 -130 226 -98Z" glyph-name="aogonek" horiz-adv-x="450" unicode="ą" /><glyph d="M48 159 65 260Q78 340 127.5 382Q177 424 261 424Q289 424 320.5 416.5Q352 409 374 397L345 342Q324 353 301 359Q278 365 254 365Q202 365 170.5 338.5Q139 312 131 260L114 159Q104 101 123.5 74.5Q143 48 196 48Q217 48 244 54Q271 60 302 72L321 18Q281 2 251.5 -4.5Q222 -11 191 -11Q106 -11 70 32.5Q34 76 48 159ZM152 -176 108 -156L150 -48L203 -72Z" glyph-name="ccedilla" horiz-adv-x="381" unicode="ç" /><glyph d="M48 159 65 260Q78 340 127.5 382Q177 424 261 424Q289 424 320.5 416.5Q352 409 374 397L345 342Q324 353 301 359Q278 365 254 365Q202 365 170.5 338.5Q139 312 131 260L114 159Q104 101 123.5 74.5Q143 48 196 48Q217 48 244 54Q271 60 302 72L321 18Q281 2 251.5 -4.5Q222 -11 191 -11Q106 -11 70 32.5Q34 76 48 159ZM224 471 198 516L331 601L363 545Z" glyph-name="cacute" horiz-adv-x="381" unicode="ć" /><glyph d="M48 159 65 260Q78 340 127.5 382Q177 424 261 424Q289 424 320.5 416.5Q352 409 374 397L345 342Q324 353 301 359Q278 365 254 365Q202 365 170.5 338.5Q139 312 131 260L114 159Q104 101 123.5 74.5Q143 48 196 48Q217 48 244 54Q271 60 302 72L321 18Q281 2 251.5 -4.5Q222 -11 191 -11Q106 -11 70 32.5Q34 76 48 159ZM185 586 264 548L358 588L377 545L258 480L160 545Z" glyph-name="ccaron" horiz-adv-x="381" unicode="č" /><glyph d="M48 159 65 260Q78 340 127.5 382Q177 424 261 424Q289 424 320.5 416.5Q352 409 374 397L345 342Q324 353 301 359Q278 365 254 365Q202 365 170.5 338.5Q139 312 131 260L114 159Q104 101 123.5 74.5Q143 48 196 48Q217 48 244 54Q271 60 302 72L321 18Q281 2 251.5 -4.5Q222 -11 191 -11Q106 -11 70 32.5Q34 76 48 159ZM176 484 157 527L276 592L374 527L349 486L270 524Z" glyph-name="ccircumflex" horiz-adv-x="381" unicode="ĉ" /><glyph d="M48 159 65 260Q78 340 127.5 382Q177 424 261 424Q289 424 320.5 416.5Q352 409 374 397L345 342Q324 353 301 359Q278 365 254 365Q202 365 170.5 338.5Q139 312 131 260L114 159Q104 101 123.5 74.5Q143 48 196 48Q217 48 244 54Q271 60 302 72L321 18Q281 2 251.5 -4.5Q222 -11 191 -11Q106 -11 70 32.5Q34 76 48 159ZM259 472 208 534L274 589L324 527Z" glyph-name="cdotaccent" horiz-adv-x="381" unicode="ċ" /><glyph d="M311 181 384 594H450L346 0H295L291 44Q266 16 236 2.5Q206 -11 171 -11Q99 -11 65.5 33Q32 77 45 149L66 265Q79 341 125 382.5Q171 424 243 424Q263 424 283.5 419Q304 414 319 405L297 357Q285 362 271 364.5Q257 367 242 367Q195 367 168 341.5Q141 316 132 265L111 149Q103 99 122 73Q141 47 185 47Q235 47 267 81Q299 115 311 181ZM520 462 479 478Q495 528 505 561Q515 594 519 610L575 593Q563 561 550 530Q537 499 520 462Z" glyph-name="dcaron" horiz-adv-x="449" unicode="ď" /><glyph d="M371 522 384 594H450L437 522H492L483 470H428L346 0H295L291 44Q266 16 236 2.5Q206 -11 171 -11Q99 -11 65.5 33Q32 77 45 149L66 265Q79 341 125 382.5Q171 424 243 424Q263 424 283.5 419Q304 414 319 405L297 357Q285 362 271 364.5Q257 367 242 367Q195 367 168 341.5Q141 316 132 265L111 149Q103 99 122 73Q141 47 185 47Q235 47 267 81Q299 115 311 181L362 470H265L274 522Z" glyph-name="dcroat" horiz-adv-x="452" unicode="đ" /><glyph d="M46 150 65 260Q79 339 127 381.5Q175 424 252 424Q331 424 368 379.5Q405 335 391 260Q386 231 383 212.5Q380 194 376 178H117L112 150Q103 97 124.5 72Q146 47 201 47Q220 47 245.5 53.5Q271 60 311 75L330 21Q282 1 254 -5Q226 -11 196 -11Q110 -11 71.5 31Q33 73 46 150ZM322 235 326 260Q335 313 315 340.5Q295 368 247 368Q200 368 170 340.5Q140 313 131 260L127 235ZM227 471 201 516L334 601L366 545Z" glyph-name="eacute" horiz-adv-x="432" unicode="é" /><glyph d="M46 150 65 260Q79 339 127 381.5Q175 424 252 424Q331 424 368 379.5Q405 335 391 260Q386 231 383 212.5Q380 194 376 178H117L112 150Q103 97 124.5 72Q146 47 201 47Q220 47 245.5 53.5Q271 60 311 75L330 21Q282 1 254 -5Q226 -11 196 -11Q110 -11 71.5 31Q33 73 46 150ZM322 235 326 260Q335 313 315 340.5Q295 368 247 368Q200 368 170 340.5Q140 313 131 260L127 235ZM179 484 160 527L279 592L377 527L352 486L273 524Z" glyph-name="ecircumflex" horiz-adv-x="432" unicode="ê" /><glyph d="M46 150 65 260Q79 339 127 381.5Q175 424 252 424Q331 424 368 379.5Q405 335 391 260Q386 231 383 212.5Q380 194 376 178H117L112 150Q103 97 124.5 72Q146 47 201 47Q220 47 245.5 53.5Q271 60 311 75L330 21Q282 1 254 -5Q226 -11 196 -11Q110 -11 71.5 31Q33 73 46 150ZM322 235 326 260Q335 313 315 340.5Q295 368 247 368Q200 368 170 340.5Q140 313 131 260L127 235ZM342 479 297 533L355 582L399 528ZM188 479 143 533L201 582L245 528Z" glyph-name="edieresis" horiz-adv-x="432" unicode="ë" /><glyph d="M46 150 65 260Q79 339 127 381.5Q175 424 252 424Q331 424 368 379.5Q405 335 391 260Q386 231 383 212.5Q380 194 376 178H117L112 150Q103 97 124.5 72Q146 47 201 47Q220 47 245.5 53.5Q271 60 311 75L330 21Q282 1 254 -5Q226 -11 196 -11Q110 -11 71.5 31Q33 73 46 150ZM322 235 326 260Q335 313 315 340.5Q295 368 247 368Q200 368 170 340.5Q140 313 131 260L127 235ZM314 471 194 549L231 601L345 515Z" glyph-name="egrave" horiz-adv-x="432" unicode="è" /><glyph d="M46 150 65 260Q79 339 127 381.5Q175 424 252 424Q331 424 368 379.5Q405 335 391 260Q386 231 383 212.5Q380 194 376 178H117L112 150Q103 97 124.5 72Q146 47 201 47Q220 47 245.5 53.5Q271 60 311 75L330 21Q282 1 254 -5Q226 -11 196 -11Q110 -11 71.5 31Q33 73 46 150ZM322 235 326 260Q335 313 315 340.5Q295 368 247 368Q200 368 170 340.5Q140 313 131 260L127 235ZM274 534Q294 534 308 545Q322 556 330 578H378Q369 532 340.5 507.5Q312 483 269 483Q226 483 204.5 507.5Q183 532 184 578H232Q232 557 243 545.5Q254 534 274 534Z" glyph-name="ebreve" horiz-adv-x="432" unicode="ĕ" /><glyph d="M46 150 65 260Q79 339 127 381.5Q175 424 252 424Q331 424 368 379.5Q405 335 391 260Q386 231 383 212.5Q380 194 376 178H117L112 150Q103 97 124.5 72Q146 47 201 47Q220 47 245.5 53.5Q271 60 311 75L330 21Q282 1 254 -5Q226 -11 196 -11Q110 -11 71.5 31Q33 73 46 150ZM322 235 326 260Q335 313 315 340.5Q295 368 247 368Q200 368 170 340.5Q140 313 131 260L127 235ZM188 586 267 548L361 588L380 545L261 480L163 545Z" glyph-name="ecaron" horiz-adv-x="432" unicode="ě" /><glyph d="M46 150 65 260Q79 339 127 381.5Q175 424 252 424Q331 424 368 379.5Q405 335 391 260Q386 231 383 212.5Q380 194 376 178H117L112 150Q103 97 124.5 72Q146 47 201 47Q220 47 245.5 53.5Q271 60 311 75L330 21Q282 1 254 -5Q226 -11 196 -11Q110 -11 71.5 31Q33 73 46 150ZM322 235 326 260Q335 313 315 340.5Q295 368 247 368Q200 368 170 340.5Q140 313 131 260L127 235ZM262 472 211 534L277 589L327 527Z" glyph-name="edotaccent" horiz-adv-x="432" unicode="ė" /><glyph d="M46 150 65 260Q79 339 127 381.5Q175 424 252 424Q331 424 368 379.5Q405 335 391 260Q386 231 383 212.5Q380 194 376 178H117L112 150Q103 97 124.5 72Q146 47 201 47Q220 47 245.5 53.5Q271 60 311 75L330 21Q282 1 254 -5Q226 -11 196 -11Q110 -11 71.5 31Q33 73 46 150ZM322 235 326 260Q335 313 315 340.5Q295 368 247 368Q200 368 170 340.5Q140 313 131 260L127 235ZM179 497 188 552H361L352 497Z" glyph-name="emacron" horiz-adv-x="432" unicode="ē" /><glyph d="M46 150 65 260Q79 339 127 381.5Q175 424 252 424Q331 424 368 379.5Q405 335 391 260Q386 231 383 212.5Q380 194 376 178H117L112 150Q103 97 124.5 72Q146 47 201 47Q220 47 245.5 53.5Q271 60 311 75L330 21Q283 -31 267.5 -51.5Q252 -72 249 -89Q246 -105 253.5 -112.5Q261 -120 279 -120L271 -166Q230 -166 208 -147.5Q186 -129 192 -98Q195 -81 204.5 -65.5Q214 -50 253 -5Q240 -8 226 -9.5Q212 -11 196 -11Q110 -11 71.5 31Q33 73 46 150ZM127 235 322 235L326 260Q335 313 315 340.5Q295 368 247 368Q200 368 170 340.5Q140 313 131 260Z" glyph-name="eogonek" horiz-adv-x="432" unicode="ę" /><glyph d="M46 149 67 264Q80 337 126 380.5Q172 424 241 424Q277 424 305 409.5Q333 395 347 370L368 413H419L345 -6Q328 -102 281.5 -145Q235 -188 153 -188Q129 -188 102.5 -183Q76 -178 47 -168L68 -112Q92 -121 113 -125Q134 -129 153 -129Q208 -129 238 -100.5Q268 -72 279 -6L324 250Q334 305 313.5 335.5Q293 366 246 366Q199 366 170 340Q141 314 133 264L112 149Q103 98 121.5 72Q140 46 183 46Q196 46 210 49Q224 52 239 59L257 12Q235 0 213.5 -5.5Q192 -11 169 -11Q98 -11 66 32Q34 75 46 149ZM257 534Q277 534 291 545Q305 556 313 578H361Q352 532 323.5 507.5Q295 483 252 483Q209 483 187.5 507.5Q166 532 167 578H215Q215 557 226 545.5Q237 534 257 534Z" glyph-name="gbreve" horiz-adv-x="450" unicode="ğ" /><glyph d="M46 149 67 264Q80 337 126 380.5Q172 424 241 424Q277 424 305 409.5Q333 395 347 370L368 413H419L345 -6Q328 -102 281.5 -145Q235 -188 153 -188Q129 -188 102.5 -183Q76 -178 47 -168L68 -112Q92 -121 113 -125Q134 -129 153 -129Q208 -129 238 -100.5Q268 -72 279 -6L324 250Q334 305 313.5 335.5Q293 366 246 366Q199 366 170 340Q141 314 133 264L112 149Q103 98 121.5 72Q140 46 183 46Q196 46 210 49Q224 52 239 59L257 12Q235 0 213.5 -5.5Q192 -11 169 -11Q98 -11 66 32Q34 75 46 149ZM168 484 149 527L268 592L366 527L341 486L262 524Z" glyph-name="gcircumflex" horiz-adv-x="450" unicode="ĝ" /><glyph d="M46 149 67 264Q80 337 126 380.5Q172 424 241 424Q277 424 305 409.5Q333 395 347 370L368 413H419L345 -6Q328 -102 281.5 -145Q235 -188 153 -188Q129 -188 102.5 -183Q76 -178 47 -168L68 -112Q92 -121 113 -125Q134 -129 153 -129Q208 -129 238 -100.5Q268 -72 279 -6L324 250Q334 305 313.5 335.5Q293 366 246 366Q199 366 170 340Q141 314 133 264L112 149Q103 98 121.5 72Q140 46 183 46Q196 46 210 49Q224 52 239 59L257 12Q235 0 213.5 -5.5Q192 -11 169 -11Q98 -11 66 32Q34 75 46 149ZM274 594 318 574L276 466L223 490Z" glyph-name="gcommaaccent" horiz-adv-x="450" unicode="ģ" /><glyph d="M46 149 67 264Q80 337 126 380.5Q172 424 241 424Q277 424 305 409.5Q333 395 347 370L368 413H419L345 -6Q328 -102 281.5 -145Q235 -188 153 -188Q129 -188 102.5 -183Q76 -178 47 -168L68 -112Q92 -121 113 -125Q134 -129 153 -129Q208 -129 238 -100.5Q268 -72 279 -6L324 250Q334 305 313.5 335.5Q293 366 246 366Q199 366 170 340Q141 314 133 264L112 149Q103 98 121.5 72Q140 46 183 46Q196 46 210 49Q224 52 239 59L257 12Q235 0 213.5 -5.5Q192 -11 169 -11Q98 -11 66 32Q34 75 46 149ZM248 472 197 534L263 589L313 527Z" glyph-name="gdotaccent" horiz-adv-x="450" unicode="ġ" /><glyph d="M123 522 136 594H202L189 522H289L280 470H180L163 372Q187 397 218 410.5Q249 424 284 424Q354 424 385 381.5Q416 339 404 264L357 0H291L338 264Q347 315 329.5 340.5Q312 366 269 366Q220 366 185.5 334.5Q151 303 141 250L97 0H31L114 470H62L71 522Z" glyph-name="hbar" horiz-adv-x="455" unicode="ħ" /><glyph d="M31 0 136 594H202L163 372Q187 397 218 410.5Q249 424 284 424Q354 424 385 381.5Q416 339 404 264L357 0H291L338 264Q347 315 329.5 340.5Q312 366 269 366Q220 366 185.5 334.5Q151 303 141 250L97 0ZM182 665 163 708L282 773L380 708L355 667L276 705Z" glyph-name="hcircumflex" horiz-adv-x="454" unicode="ĥ" /><glyph d="M32 0 104 413H170L98 0ZM112 471 86 516L219 601L251 545Z" glyph-name="iacute" horiz-adv-x="202" unicode="í" /><glyph d="M32 0 104 413H170L98 0ZM64 484 45 527L164 592L262 527L237 486L158 524Z" glyph-name="icircumflex" horiz-adv-x="202" unicode="î" /><glyph d="M32 0 104 413H170L98 0ZM227 479 182 533L240 582L284 528ZM73 479 28 533L86 582L130 528Z" glyph-name="idieresis" horiz-adv-x="202" unicode="ï" /><glyph d="M32 0 104 413H170L98 0ZM199 471 79 549L116 601L230 515Z" glyph-name="igrave" horiz-adv-x="202" unicode="ì" /><glyph d="M32 0 104 413H170L98 0ZM160 534Q180 534 194 545Q208 556 216 578H264Q255 532 226.5 507.5Q198 483 155 483Q112 483 90.5 507.5Q69 532 70 578H118Q118 557 129 545.5Q140 534 160 534Z" glyph-name="ibreve" horiz-adv-x="202" unicode="ĭ" /><glyph d="M32 0 104 413H170L98 0ZM147 472 96 534L162 589L212 527Z" glyph-name="i.dot" horiz-adv-x="202" unicode="" /><glyph d="M32 0 104 413H170L98 0ZM64 497 73 552H246L237 497Z" glyph-name="imacron" horiz-adv-x="202" unicode="ī" /><glyph d="M147 472 96 534L162 589L212 527ZM-22 -98Q-19 -78 -9 -62Q1 -46 46 0H32L104 413H170L98 0Q62 -37 49.5 -54Q37 -71 35 -89Q31 -105 38 -112.5Q45 -120 64 -120L56 -166Q14 -166 -7 -148Q-28 -130 -22 -98Z" glyph-name="iogonek" horiz-adv-x="202" unicode="į" /><glyph d="M32 0 104 413H170L98 0ZM197 544Q206 544 211.5 550.5Q217 557 219 570H269Q262 532 243.5 512.5Q225 493 198 493Q189 493 178.5 495.5Q168 498 156 503Q141 510 131.5 513Q122 516 118 516Q110 516 105 510Q100 504 98 492H48Q55 530 72.5 549.5Q90 569 117 569Q127 569 137.5 566.5Q148 564 159 558Q174 551 183.5 547.5Q193 544 197 544Z" glyph-name="itilde" horiz-adv-x="202" unicode="ĩ" /><glyph d="M21 -57 104 413H170L87 -57Q74 -127 40.5 -159Q7 -191 -52 -191Q-61 -191 -71.5 -189.5Q-82 -188 -91 -186L-79 -127Q-72 -128 -64 -129Q-56 -130 -48 -130Q-17 -130 -1.5 -113Q14 -96 21 -57ZM63 484 44 527L163 592L261 527L236 486L157 524Z" glyph-name="jcircumflex" horiz-adv-x="202" unicode="ĵ" /><glyph d="M146 472 95 534L161 589L211 527ZM31 0 104 413H170L97 0ZM348 472 297 534L363 589L413 527ZM223 -57 306 413H372L289 -57Q276 -127 242.5 -159Q209 -191 150 -191Q141 -191 130.5 -189.5Q120 -188 111 -186L123 -127Q130 -128 138 -129Q146 -130 154 -130Q185 -130 200.5 -113Q216 -96 223 -57Z" glyph-name="ij" horiz-adv-x="404" unicode="ĳ" /><glyph d="M31 0 136 594H202L134 211L339 413H425L256 248L364 0H290L206 200L117 114L97 0ZM151 -176 107 -156L149 -48L202 -72Z" glyph-name="kcommaaccent" horiz-adv-x="413" unicode="ķ" /><glyph d="M32 0 136 594H202L98 0ZM144 652 118 697L251 782L283 726Z" glyph-name="lacute" horiz-adv-x="202" unicode="ĺ" /><glyph d="M32 0 136 594H202L98 0ZM272 463 231 479Q247 529 257 562Q267 595 271 611L327 594Q315 562 302 531Q289 500 272 463Z" glyph-name="lcaron" horiz-adv-x="202" unicode="ľ" /><glyph d="M32 0 136 594H202L98 0ZM31 -176 -13 -156L29 -48L82 -72Z" glyph-name="lcommaaccent" horiz-adv-x="202" unicode="ļ" /><glyph d="M32 0 136 594H202L98 0ZM240 195 191 254L261 313L309 254Z" glyph-name="ldot" horiz-adv-x="316" unicode="ŀ" /><glyph d="M404 264 347 -57Q334 -127 300.5 -159Q267 -191 208 -191Q199 -191 188.5 -189.5Q178 -188 169 -186L181 -127Q188 -128 196 -129Q204 -130 212 -130Q243 -130 258.5 -113Q274 -96 281 -56L338 264Q347 315 329.5 340.5Q312 366 269 366Q220 366 186 334.5Q152 303 142 250L98 0H32L104 413H155L160 369Q184 396 216 410Q248 424 284 424Q354 424 385 381.5Q416 339 404 264Z" glyph-name="eng" horiz-adv-x="454" unicode="ŋ" /><glyph d="M155 413 160 369Q184 396 216 410Q248 424 284 424Q355 424 386 381Q417 338 404 264L358 0H292L338 264Q347 315 330 340.5Q313 366 269 366Q220 366 186 334.5Q152 303 142 250L98 0H32L104 413ZM327 544Q336 544 341.5 550.5Q347 557 349 570H399Q392 532 373.5 512.5Q355 493 328 493Q319 493 308.5 495.5Q298 498 286 503Q271 510 261.5 513Q252 516 248 516Q240 516 235 510Q230 504 228 492H178Q185 530 202.5 549.5Q220 569 247 569Q257 569 267.5 566.5Q278 564 289 558Q304 551 313.5 547.5Q323 544 327 544Z" glyph-name="ntilde" horiz-adv-x="455" unicode="ñ" /><glyph d="M155 413 160 369Q184 396 216 410Q248 424 284 424Q355 424 386 381Q417 338 404 264L358 0H292L338 264Q347 315 330 340.5Q313 366 269 366Q220 366 186 334.5Q152 303 142 250L98 0H32L104 413ZM247 471 221 516L354 601L386 545Z" glyph-name="nacute" horiz-adv-x="455" unicode="ń" /><glyph d="M155 413 160 369Q184 396 216 410Q248 424 284 424Q355 424 386 381Q417 338 404 264L358 0H292L338 264Q347 315 330 340.5Q313 366 269 366Q220 366 186 334.5Q152 303 142 250L98 0H32L104 413ZM208 586 287 548L381 588L400 545L281 480L183 545Z" glyph-name="ncaron" horiz-adv-x="455" unicode="ň" /><glyph d="M155 413 160 369Q184 396 216 410Q248 424 284 424Q355 424 386 381Q417 338 404 264L358 0H292L338 264Q347 315 330 340.5Q313 366 269 366Q220 366 186 334.5Q152 303 142 250L98 0H32L104 413ZM161 -176 117 -156L159 -48L212 -72Z" glyph-name="ncommaaccent" horiz-adv-x="455" unicode="ņ" /><glyph d="M47 153 65 260Q80 339 128 381.5Q176 424 254 424Q334 424 371.5 380Q409 336 395 260L377 153Q362 74 314 31.5Q266 -11 188 -11Q108 -11 70.5 33Q33 77 47 153ZM311 153 329 260Q338 313 318 340Q298 367 249 367Q200 367 170 340Q140 313 131 260L113 153Q104 100 124 73Q144 46 193 46Q242 46 272 73Q302 100 311 153ZM229 471 203 516L336 601L368 545Z" glyph-name="oacute" horiz-adv-x="442" unicode="ó" /><glyph d="M47 153 65 260Q80 339 128 381.5Q176 424 254 424Q334 424 371.5 380Q409 336 395 260L377 153Q362 74 314 31.5Q266 -11 188 -11Q108 -11 70.5 33Q33 77 47 153ZM311 153 329 260Q338 313 318 340Q298 367 249 367Q200 367 170 340Q140 313 131 260L113 153Q104 100 124 73Q144 46 193 46Q242 46 272 73Q302 100 311 153ZM181 484 162 527L281 592L379 527L354 486L275 524Z" glyph-name="ocircumflex" horiz-adv-x="442" unicode="ô" /><glyph d="M47 153 65 260Q80 339 128 381.5Q176 424 254 424Q334 424 371.5 380Q409 336 395 260L377 153Q362 74 314 31.5Q266 -11 188 -11Q108 -11 70.5 33Q33 77 47 153ZM311 153 329 260Q338 313 318 340Q298 367 249 367Q200 367 170 340Q140 313 131 260L113 153Q104 100 124 73Q144 46 193 46Q242 46 272 73Q302 100 311 153ZM344 479 299 533L357 582L401 528ZM190 479 145 533L203 582L247 528Z" glyph-name="odieresis" horiz-adv-x="442" unicode="ö" /><glyph d="M47 153 65 260Q80 339 128 381.5Q176 424 254 424Q334 424 371.5 380Q409 336 395 260L377 153Q362 74 314 31.5Q266 -11 188 -11Q108 -11 70.5 33Q33 77 47 153ZM311 153 329 260Q338 313 318 340Q298 367 249 367Q200 367 170 340Q140 313 131 260L113 153Q104 100 124 73Q144 46 193 46Q242 46 272 73Q302 100 311 153ZM316 471 196 549L233 601L347 515Z" glyph-name="ograve" horiz-adv-x="442" unicode="ò" /><glyph d="M47 153 65 260Q80 339 128 381.5Q176 424 254 424Q334 424 371.5 380Q409 336 395 260L377 153Q362 74 314 31.5Q266 -11 188 -11Q108 -11 70.5 33Q33 77 47 153ZM311 153 329 260Q338 313 318 340Q298 367 249 367Q200 367 170 340Q140 313 131 260L113 153Q104 100 124 73Q144 46 193 46Q242 46 272 73Q302 100 311 153ZM309 544Q318 544 323.5 550.5Q329 557 331 570H381Q374 532 355.5 512.5Q337 493 310 493Q301 493 290.5 495.5Q280 498 268 503Q253 510 243.5 513Q234 516 230 516Q222 516 217 510Q212 504 210 492H160Q167 530 184.5 549.5Q202 569 229 569Q239 569 249.5 566.5Q260 564 271 558Q286 551 295.5 547.5Q305 544 309 544Z" glyph-name="otilde" horiz-adv-x="442" unicode="õ" /><glyph d="M47 153 65 260Q80 339 128 381.5Q176 424 254 424Q334 424 371.5 380Q409 336 395 260L377 153Q362 74 314 31.5Q266 -11 188 -11Q108 -11 70.5 33Q33 77 47 153ZM311 153 329 260Q338 313 318 340Q298 367 249 367Q200 367 170 340Q140 313 131 260L113 153Q104 100 124 73Q144 46 193 46Q242 46 272 73Q302 100 311 153ZM280 534Q300 534 314 545Q328 556 336 578H384Q375 532 346.5 507.5Q318 483 275 483Q232 483 210.5 507.5Q189 532 190 578H238Q238 557 249 545.5Q260 534 280 534Z" glyph-name="obreve" horiz-adv-x="442" unicode="ŏ" /><glyph d="M47 153 65 260Q80 339 128 381.5Q176 424 254 424Q334 424 371.5 380Q409 336 395 260L377 153Q362 74 314 31.5Q266 -11 188 -11Q108 -11 70.5 33Q33 77 47 153ZM311 153 329 260Q338 313 318 340Q298 367 249 367Q200 367 170 340Q140 313 131 260L113 153Q104 100 124 73Q144 46 193 46Q242 46 272 73Q302 100 311 153ZM320 471 287 505L375 589L413 548ZM182 471 149 505L237 589L275 548Z" glyph-name="ohungarumlaut" horiz-adv-x="442" unicode="ő" /><glyph d="M47 153 65 260Q80 339 128 381.5Q176 424 254 424Q334 424 371.5 380Q409 336 395 260L377 153Q362 74 314 31.5Q266 -11 188 -11Q108 -11 70.5 33Q33 77 47 153ZM311 153 329 260Q338 313 318 340Q298 367 249 367Q200 367 170 340Q140 313 131 260L113 153Q104 100 124 73Q144 46 193 46Q242 46 272 73Q302 100 311 153ZM181 497 190 552H363L354 497Z" glyph-name="omacron" horiz-adv-x="442" unicode="ō" /><glyph d="M155 413 161 362Q185 391 215 407.5Q245 424 276 424Q297 424 314.5 420.5Q332 417 346 411L317 348Q303 355 288.5 358.5Q274 362 260 362Q212 362 178.5 318.5Q145 275 130 191L97 0H31L104 413ZM190 471 164 516L297 601L329 545Z" glyph-name="racute" horiz-adv-x="324" unicode="ŕ" /><glyph d="M155 413 161 362Q185 391 215 407.5Q245 424 276 424Q297 424 314.5 420.5Q332 417 346 411L317 348Q303 355 288.5 358.5Q274 362 260 362Q212 362 178.5 318.5Q145 275 130 191L97 0H31L104 413ZM151 586 230 548L324 588L343 545L224 480L126 545Z" glyph-name="rcaron" horiz-adv-x="324" unicode="ř" /><glyph d="M155 413 161 362Q185 391 215 407.5Q245 424 276 424Q297 424 314.5 420.5Q332 417 346 411L317 348Q303 355 288.5 358.5Q274 362 260 362Q212 362 178.5 318.5Q145 275 130 191L97 0H31L104 413ZM31 -176 -13 -156L29 -48L82 -72Z" glyph-name="rcommaaccent" horiz-adv-x="324" unicode="ŗ" /><glyph d="M156 187Q88 224 69.5 251.5Q51 279 57 316Q66 368 107 396Q148 424 212 424Q246 424 279.5 416.5Q313 409 342 394L313 339Q282 354 258 360Q234 366 209 366Q174 366 150.5 352.5Q127 339 123 316Q119 295 129.5 280.5Q140 266 197 235Q262 200 284 169Q306 138 299 97Q290 46 246.5 17.5Q203 -11 136 -11Q103 -11 69 -4Q35 3 2 17L24 73Q55 61 84 54.5Q113 48 137 48Q180 48 204 61.5Q228 75 233 101Q238 126 223 142.5Q208 159 156 187ZM144 586 223 548L317 588L336 545L217 480L119 545Z" glyph-name="scaron" horiz-adv-x="356" unicode="š" /><glyph d="M156 187Q88 224 69.5 251.5Q51 279 57 316Q66 368 107 396Q148 424 212 424Q246 424 279.5 416.5Q313 409 342 394L313 339Q282 354 258 360Q234 366 209 366Q174 366 150.5 352.5Q127 339 123 316Q119 295 129.5 280.5Q140 266 197 235Q262 200 284 169Q306 138 299 97Q290 46 246.5 17.5Q203 -11 136 -11Q103 -11 69 -4Q35 3 2 17L24 73Q55 61 84 54.5Q113 48 137 48Q180 48 204 61.5Q228 75 233 101Q238 126 223 142.5Q208 159 156 187ZM183 471 157 516L290 601L322 545Z" glyph-name="sacute" horiz-adv-x="356" unicode="ś" /><glyph d="M156 187Q88 224 69.5 251.5Q51 279 57 316Q66 368 107 396Q148 424 212 424Q246 424 279.5 416.5Q313 409 342 394L313 339Q282 354 258 360Q234 366 209 366Q174 366 150.5 352.5Q127 339 123 316Q119 295 129.5 280.5Q140 266 197 235Q262 200 284 169Q306 138 299 97Q290 46 246.5 17.5Q203 -11 136 -11Q103 -11 69 -4Q35 3 2 17L24 73Q55 61 84 54.5Q113 48 137 48Q180 48 204 61.5Q228 75 233 101Q238 126 223 142.5Q208 159 156 187ZM145 484 126 527L245 592L343 527L318 486L239 524Z" glyph-name="scircumflex" horiz-adv-x="356" unicode="ŝ" /><glyph d="M156 187Q88 224 69.5 251.5Q51 279 57 316Q66 368 107 396Q148 424 212 424Q246 424 279.5 416.5Q313 409 342 394L313 339Q282 354 258 360Q234 366 209 366Q174 366 150.5 352.5Q127 339 123 316Q119 295 129.5 280.5Q140 266 197 235Q262 200 284 169Q306 138 299 97Q290 46 246.5 17.5Q203 -11 136 -11Q103 -11 69 -4Q35 3 2 17L24 73Q55 61 84 54.5Q113 48 137 48Q180 48 204 61.5Q228 75 233 101Q238 126 223 142.5Q208 159 156 187ZM105 -176 61 -156L103 -48L156 -72Z" glyph-name="scedilla" horiz-adv-x="356" unicode="ş" /><glyph d="M156 187Q88 224 69.5 251.5Q51 279 57 316Q66 368 107 396Q148 424 212 424Q246 424 279.5 416.5Q313 409 342 394L313 339Q282 354 258 360Q234 366 209 366Q174 366 150.5 352.5Q127 339 123 316Q119 295 129.5 280.5Q140 266 197 235Q262 200 284 169Q306 138 299 97Q290 46 246.5 17.5Q203 -11 136 -11Q103 -11 69 -4Q35 3 2 17L24 73Q55 61 84 54.5Q113 48 137 48Q180 48 204 61.5Q228 75 233 101Q238 126 223 142.5Q208 159 156 187ZM105 -176 61 -156L103 -48L156 -72Z" glyph-name="uni0219" horiz-adv-x="356" unicode="ș" /><glyph d="M174 508 223 508L207 413H291L281 357H197L183 278H267L257 223H173L156 127Q149 88 159.5 70Q170 52 200 52Q205 52 212 52.5Q219 53 226 54L222 -5Q214 -6 204.5 -6.5Q195 -7 187 -7Q127 -7 103 26Q79 59 90 127L107 223H23L33 278H117L131 357H47L57 413Q115 413 137 432.5Q159 452 174 508Z" glyph-name="tbar" horiz-adv-x="292" unicode="ŧ" /><glyph d="M173 508 224 508L207 413H291L281 357H197L156 127Q149 86 157.5 69Q166 52 195 52Q200 52 205 52.5Q210 53 217 54L222 -5Q214 -6 204.5 -6.5Q195 -7 187 -7Q127 -7 103 26Q79 59 90 127L131 357H47L57 413Q115 413 135.5 430Q156 447 173 508ZM297 463 256 479Q272 529 282 562Q292 595 296 611L352 594Q340 562 327 531Q314 500 297 463Z" glyph-name="tcaron" horiz-adv-x="292" unicode="ť" /><glyph d="M173 508 224 508L207 413H291L281 357H197L156 127Q149 86 157.5 69Q166 52 195 52Q200 52 205 52.5Q210 53 217 54L222 -5Q214 -6 204.5 -6.5Q195 -7 187 -7Q127 -7 103 26Q79 59 90 127L131 357H47L57 413Q115 413 135.5 430Q156 447 173 508ZM107 -176 63 -156L105 -48L158 -72Z" glyph-name="uni0163" horiz-adv-x="292" unicode="ţ" /><glyph d="M173 508 224 508L207 413H291L281 357H197L156 127Q149 86 157.5 69Q166 52 195 52Q200 52 205 52.5Q210 53 217 54L222 -5Q214 -6 204.5 -6.5Q195 -7 187 -7Q127 -7 103 26Q79 59 90 127L131 357H47L57 413Q115 413 135.5 430Q156 447 173 508ZM107 -176 63 -156L105 -48L158 -72Z" glyph-name="uni021B" horiz-adv-x="292" unicode="ț" /><glyph d="M314 163 358 413H424L351 0H300L295 44Q271 17 239 3Q207 -11 171 -11Q101 -11 70 31.5Q39 74 51 149L98 413H164L117 149Q108 98 125.5 72.5Q143 47 186 47Q235 47 269.5 78.5Q304 110 314 163ZM233 471 207 516L340 601L372 545Z" glyph-name="uacute" horiz-adv-x="455" unicode="ú" /><glyph d="M314 163 358 413H424L351 0H300L295 44Q271 17 239 3Q207 -11 171 -11Q101 -11 70 31.5Q39 74 51 149L98 413H164L117 149Q108 98 125.5 72.5Q143 47 186 47Q235 47 269.5 78.5Q304 110 314 163ZM185 484 166 527L285 592L383 527L358 486L279 524Z" glyph-name="ucircumflex" horiz-adv-x="455" unicode="û" /><glyph d="M314 163 358 413H424L351 0H300L295 44Q271 17 239 3Q207 -11 171 -11Q101 -11 70 31.5Q39 74 51 149L98 413H164L117 149Q108 98 125.5 72.5Q143 47 186 47Q235 47 269.5 78.5Q304 110 314 163ZM348 479 303 533L361 582L405 528ZM194 479 149 533L207 582L251 528Z" glyph-name="udieresis" horiz-adv-x="455" unicode="ü" /><glyph d="M314 163 358 413H424L351 0H300L295 44Q271 17 239 3Q207 -11 171 -11Q101 -11 70 31.5Q39 74 51 149L98 413H164L117 149Q108 98 125.5 72.5Q143 47 186 47Q235 47 269.5 78.5Q304 110 314 163ZM320 471 200 549L237 601L351 515Z" glyph-name="ugrave" horiz-adv-x="455" unicode="ù" /><glyph d="M314 163 358 413H424L351 0H300L295 44Q271 17 239 3Q207 -11 171 -11Q101 -11 70 31.5Q39 74 51 149L98 413H164L117 149Q108 98 125.5 72.5Q143 47 186 47Q235 47 269.5 78.5Q304 110 314 163ZM286 534Q306 534 320 545Q334 556 342 578H390Q381 532 352.5 507.5Q324 483 281 483Q238 483 216.5 507.5Q195 532 196 578H244Q244 557 255 545.5Q266 534 286 534Z" glyph-name="ubreve" horiz-adv-x="455" unicode="ŭ" /><glyph d="M314 163 358 413H424L351 0H300L295 44Q271 17 239 3Q207 -11 171 -11Q101 -11 70 31.5Q39 74 51 149L98 413H164L117 149Q108 98 125.5 72.5Q143 47 186 47Q235 47 269.5 78.5Q304 110 314 163ZM324 471 291 505L379 589L417 548ZM186 471 153 505L241 589L279 548Z" glyph-name="uhungarumlaut" horiz-adv-x="455" unicode="ű" /><glyph d="M314 163 358 413H424L351 0H300L295 44Q271 17 239 3Q207 -11 171 -11Q101 -11 70 31.5Q39 74 51 149L98 413H164L117 149Q108 98 125.5 72.5Q143 47 186 47Q235 47 269.5 78.5Q304 110 314 163ZM185 497 194 552H367L358 497Z" glyph-name="umacron" horiz-adv-x="455" unicode="ū" /><glyph d="M231 -98Q235 -78 245 -62Q255 -46 300 0L295 44Q271 17 239 3Q207 -11 171 -11Q101 -11 70 31.5Q39 74 51 149L98 413H164L117 149Q108 98 125.5 72.5Q143 47 186 47Q235 47 269.5 78.5Q304 110 314 163L358 413H424L351 0Q316 -37 303.5 -54Q291 -71 288 -89Q285 -105 292 -112.5Q299 -120 317 -120L309 -166Q268 -166 247 -148Q226 -130 231 -98Z" glyph-name="uogonek" horiz-adv-x="455" unicode="ų" /><glyph d="M314 163 358 413H424L351 0H300L295 44Q271 17 239 3Q207 -11 171 -11Q101 -11 70 31.5Q39 74 51 149L98 413H164L117 149Q108 98 125.5 72.5Q143 47 186 47Q235 47 269.5 78.5Q304 110 314 163ZM202 528 203 538Q209 569 232 587.5Q255 606 289 606Q325 606 343.5 587Q362 568 356 538L355 528Q349 497 325.5 478.5Q302 460 267 460Q232 460 214 479Q196 498 202 528ZM309 528 310 537Q312 551 305.5 558.5Q299 566 284 566Q270 566 260.5 558.5Q251 551 249 537L248 528Q245 514 251 506.5Q257 499 272 499Q287 499 296.5 506.5Q306 514 309 528Z" glyph-name="uring" horiz-adv-x="455" unicode="ů" /><glyph d="M314 163 358 413H424L351 0H300L295 44Q271 17 239 3Q207 -11 171 -11Q101 -11 70 31.5Q39 74 51 149L98 413H164L117 149Q108 98 125.5 72.5Q143 47 186 47Q235 47 269.5 78.5Q304 110 314 163ZM323 544Q332 544 337.5 550.5Q343 557 345 570H395Q388 532 369.5 512.5Q351 493 324 493Q315 493 304.5 495.5Q294 498 282 503Q267 510 257.5 513Q248 516 244 516Q236 516 231 510Q226 504 224 492H174Q181 530 198.5 549.5Q216 569 243 569Q253 569 263.5 566.5Q274 564 285 558Q300 551 309.5 547.5Q319 544 323 544Z" glyph-name="utilde" horiz-adv-x="455" unicode="ũ" /><glyph d="M427 78 562 413H633L464 0H377L325 331L156 0H69L46 413H111L128 78L300 413H373ZM312 471 286 516L419 601L451 545Z" glyph-name="wacute" horiz-adv-x="607" unicode="ẃ" /><glyph d="M427 78 562 413H633L464 0H377L325 331L156 0H69L46 413H111L128 78L300 413H373ZM264 484 245 527L364 592L462 527L437 486L358 524Z" glyph-name="wcircumflex" horiz-adv-x="607" unicode="ŵ" /><glyph d="M427 78 562 413H633L464 0H377L325 331L156 0H69L46 413H111L128 78L300 413H373ZM427 479 382 533L440 582L484 528ZM273 479 228 533L286 582L330 528Z" glyph-name="wdieresis" horiz-adv-x="607" unicode="ẅ" /><glyph d="M427 78 562 413H633L464 0H377L325 331L156 0H69L46 413H111L128 78L300 413H373ZM399 471 279 549L316 601L430 515Z" glyph-name="wgrave" horiz-adv-x="607" unicode="ẁ" /><glyph d="M185 84 361 413H435L156 -99Q128 -150 97.5 -170.5Q67 -191 18 -191Q9 -191 -1.5 -189.5Q-12 -188 -21 -186L-9 -127Q-2 -128 6 -129Q14 -130 22 -130Q48 -130 64.5 -118Q81 -106 98 -75L137 -3L56 413H124ZM218 471 192 516L325 601L357 545Z" glyph-name="yacute" horiz-adv-x="419" unicode="ý" /><glyph d="M185 84 361 413H435L156 -99Q128 -150 97.5 -170.5Q67 -191 18 -191Q9 -191 -1.5 -189.5Q-12 -188 -21 -186L-9 -127Q-2 -128 6 -129Q14 -130 22 -130Q48 -130 64.5 -118Q81 -106 98 -75L137 -3L56 413H124ZM333 479 288 533L346 582L390 528ZM179 479 134 533L192 582L236 528Z" glyph-name="ydieresis" horiz-adv-x="419" unicode="ÿ" /><glyph d="M185 84 361 413H435L156 -99Q128 -150 97.5 -170.5Q67 -191 18 -191Q9 -191 -1.5 -189.5Q-12 -188 -21 -186L-9 -127Q-2 -128 6 -129Q14 -130 22 -130Q48 -130 64.5 -118Q81 -106 98 -75L137 -3L56 413H124ZM170 484 151 527L270 592L368 527L343 486L264 524Z" glyph-name="ycircumflex" horiz-adv-x="419" unicode="ŷ" /><glyph d="M185 84 361 413H435L156 -99Q128 -150 97.5 -170.5Q67 -191 18 -191Q9 -191 -1.5 -189.5Q-12 -188 -21 -186L-9 -127Q-2 -128 6 -129Q14 -130 22 -130Q48 -130 64.5 -118Q81 -106 98 -75L137 -3L56 413H124ZM305 471 185 549L222 601L336 515Z" glyph-name="ygrave" horiz-adv-x="419" unicode="ỳ" /><glyph d="M67 356 77 413H360L350 356L86 57H302L292 0H-1L10 63L268 356ZM150 586 229 548L323 588L342 545L223 480L125 545Z" glyph-name="zcaron" horiz-adv-x="367" unicode="ž" /><glyph d="M67 356 77 413H360L350 356L86 57H302L292 0H-1L10 63L268 356ZM189 471 163 516L296 601L328 545Z" glyph-name="zacute" horiz-adv-x="367" unicode="ź" /><glyph d="M67 356 77 413H360L350 356L86 57H302L292 0H-1L10 63L268 356ZM224 472 173 534L239 589L289 527Z" glyph-name="zdotaccent" horiz-adv-x="367" unicode="ż" /><glyph d="M189 471 163 516L296 601L328 545Z" glyph-name="acute" horiz-adv-x="260" unicode="´" /><glyph d="M305 471 185 549L222 601L336 515Z" glyph-name="grave" horiz-adv-x="257" unicode="`" /><glyph d="M170 484 151 527L270 592L368 527L343 486L264 524Z" glyph-name="circumflex" horiz-adv-x="302" unicode="ˆ" /><glyph d="M150 586 229 548L323 588L342 545L223 480L125 545Z" glyph-name="caron" horiz-adv-x="302" unicode="ˇ" /><glyph d="M323 544Q332 544 337.5 550.5Q343 557 345 570H395Q388 532 369.5 512.5Q351 493 324 493Q315 493 304.5 495.5Q294 498 282 503Q267 510 257.5 513Q248 516 244 516Q236 516 231 510Q226 504 224 492H174Q181 530 198.5 549.5Q216 569 243 569Q253 569 263.5 566.5Q274 564 285 558Q300 551 309.5 547.5Q319 544 323 544Z" glyph-name="tilde" horiz-adv-x="303" unicode="˜" /><glyph d="M333 479 288 533L346 582L390 528ZM179 479 134 533L192 582L236 528Z" glyph-name="dieresis" horiz-adv-x="418" unicode="¨" /><glyph d="M202 528 203 538Q209 569 232 587.5Q255 606 289 606Q325 606 343.5 587Q362 568 356 538L355 528Q349 497 325.5 478.5Q302 460 267 460Q232 460 214 479Q196 498 202 528ZM309 528 310 537Q312 551 305.5 558.5Q299 566 284 566Q270 566 260.5 558.5Q251 551 249 537L248 528Q245 514 251 506.5Q257 499 272 499Q287 499 296.5 506.5Q306 514 309 528Z" glyph-name="ring" horiz-adv-x="289" unicode="˚" /><glyph d="M105 -176 61 -156L103 -48L156 -72Z" glyph-name="cedilla" horiz-adv-x="178" unicode="¸" /><glyph d="M324 471 291 505L379 589L417 548ZM186 471 153 505L241 589L279 548Z" glyph-name="hungarumlaut" horiz-adv-x="371" unicode="˝" /><glyph d="M286 534Q306 534 320 545Q334 556 342 578H390Q381 532 352.5 507.5Q324 483 281 483Q238 483 216.5 507.5Q195 532 196 578H244Q244 557 255 545.5Q266 534 286 534Z" glyph-name="breve" horiz-adv-x="287" unicode="˘" /><glyph d="M185 497 194 552H367L358 497Z" glyph-name="macron" horiz-adv-x="303" unicode="¯" /><glyph d="M224 472 173 534L239 589L289 527Z" glyph-name="dotaccent" horiz-adv-x="231" unicode="˙" /><glyph d="M120 185 62 254L136 316L192 246Z" glyph-name="periodcentered" horiz-adv-x="239" unicode="·" /><glyph d="M26 -98Q30 -78 40 -62Q50 -46 95 0H146Q111 -37 98.5 -54Q86 -71 83 -89Q80 -105 87 -112.5Q94 -120 112 -120L104 -166Q63 -166 42 -148Q21 -130 26 -98Z" glyph-name="ogonek" horiz-adv-x="265" unicode="˛" /><glyph d="M107 -176 63 -156L105 -48L158 -72Z" glyph-name="commaaccent" horiz-adv-x="178" unicode="" /><glyph d="M274 594 318 574L276 466L223 490Z" glyph-name="revcommaaccent" horiz-adv-x="185" unicode="" /><glyph d="M297 463 256 479Q272 529 282 562Q292 595 296 611L352 594Q340 562 327 531Q314 500 297 463Z" glyph-name="caron.alt" horiz-adv-x="157" unicode="" /><glyph d="M79 -16 22 53L96 115L153 45Z" glyph-name="period" horiz-adv-x="230" unicode="." /><glyph d="M42 -121 -6 -99L76 111L147 78Z" glyph-name="comma" horiz-adv-x="230" unicode="," /><glyph d="M136 300 80 366L150 425L205 359ZM81 -13 25 53L95 112L150 46Z" glyph-name="colon" horiz-adv-x="230" unicode=":" /><glyph d="M137 300 82 366L152 425L206 359ZM31 -129 -17 -107L65 103L136 70Z" glyph-name="semicolon" horiz-adv-x="230" unicode=";" /><glyph d="M451 -13 400 47L465 101L515 41ZM69 -13 18 47L83 101L133 41ZM260 -13 209 47L274 101L324 41Z" glyph-name="ellipsis" horiz-adv-x="590" unicode="…" /><glyph d="M92 431 70 486Q112 504 146.5 511.5Q181 519 215 519Q281 519 319 480Q357 441 350 385Q343 334 303 287.5Q263 241 162 169L126 218Q209 276 243 310.5Q277 345 283 378Q289 414 268 437.5Q247 461 209 461Q184 461 156.5 454Q129 447 92 431ZM100 -13 45 53L115 112L169 46Z" glyph-name="question" horiz-adv-x="358" unicode="?" /><glyph d="M68 186 121 508H195L134 186ZM70 -13 15 53L85 112L139 46Z" glyph-name="exclam" horiz-adv-x="209" unicode="!" /><glyph d="M243 300 189 366L257 425L313 359ZM8 24Q16 66 43 104.5Q70 143 128 191Q143 204 167.5 222Q192 240 196 243L233 192L168 143Q123 108 102.5 81Q82 54 76 22Q70 -10 92 -30.5Q114 -51 152 -51Q174 -51 197.5 -45.5Q221 -40 268 -22L289 -78Q253 -94 216.5 -102Q180 -110 145 -110Q76 -110 37 -72.5Q-2 -35 8 24Z" glyph-name="questiondown" horiz-adv-x="355" unicode="¿" /><glyph d="M124 300 70 366L139 425L194 359ZM14 -96 75 226H141L88 -96Z" glyph-name="exclamdown" horiz-adv-x="209" unicode="¡" /><glyph d="M248 596 282 615L311 559L276 539Q225 508 197.5 463.5Q170 419 158 350L124 157Q112 87 123.5 41.5Q135 -4 174 -34L201 -55L160 -108L133 -88Q77 -46 59.5 11.5Q42 69 58 157L92 350Q108 445 144.5 501.5Q181 558 248 596Z" glyph-name="parenleft" horiz-adv-x="265" unicode="(" /><glyph d="M108 541 81 562L122 615L149 595Q205 553 222.5 495.5Q240 438 224 350L190 157Q174 62 137.5 5.5Q101 -51 34 -89L0 -108L-29 -52L6 -32Q57 -1 84.5 43.5Q112 88 124 157L158 350Q170 420 158.5 465.5Q147 511 108 541Z" glyph-name="parenright" horiz-adv-x="265" unicode=")" /><glyph d="M151 -108 40 256L279 619L333 583L112 247L215 -88Z" glyph-name="parenleft.alt" horiz-adv-x="277" unicode="" /><glyph d="M183 264 80 599L144 619L255 255L16 -108L-38 -72Z" glyph-name="parenright.alt" horiz-adv-x="277" unicode="" /><glyph d="M315 610 340 610L329 551H310Q274 551 251 528.5Q228 506 221 464L208 391Q197 328 175.5 293.5Q154 259 120 247Q150 234 159.5 204.5Q169 175 159 115L147 44Q139 -3 150.5 -23Q162 -43 197 -43H224L214 -102H192Q129 -102 99.5 -63Q70 -24 82 44L98 137Q105 176 91.5 198Q78 220 44 225L54 282Q90 287 111.5 309Q133 331 140 370L156 464Q168 536 208 573Q248 610 315 610Z" glyph-name="braceleft" horiz-adv-x="296" unicode="{" /><glyph d="M89 551 99 610H121Q184 610 213.5 571Q243 532 231 464L215 371Q208 332 221.5 310Q235 288 269 283L259 226Q224 221 201.5 198Q179 175 173 138L157 44Q144 -29 104.5 -65.5Q65 -102 -2 -102H-27L-16 -43H3Q38 -43 61 -20.5Q84 2 92 44L105 117Q116 180 137.5 214.5Q159 249 193 261Q163 274 153.5 303.5Q144 333 154 393L166 464Q174 511 162.5 531Q151 551 116 551Z" glyph-name="braceright" horiz-adv-x="296" unicode="}" /><glyph d="M315 610 340 610L329 551H310Q274 551 251 528.5Q228 506 221 464L207 387Q197 329 163 295.5Q129 262 41 221L17 275Q83 309 111 336.5Q139 364 146 405L156 464Q168 537 208 573.5Q248 610 315 610ZM93 206 153 231Q163 201 164.5 178Q166 155 159 115L147 44Q139 -3 150.5 -23Q162 -43 197 -43H224L214 -102H192Q128 -102 99 -63.5Q70 -25 82 44L98 137Q101 159 100 173.5Q99 188 93 206Z" glyph-name="braceleft.alt" horiz-adv-x="296" unicode="" /><glyph d="M89 551 99 610H121Q184 610 213.5 571Q243 532 231 464L217 381Q213 356 213 343Q213 330 220 302L160 277Q151 298 149.5 327Q148 356 154 393L166 464Q174 511 162.5 531Q151 551 116 551ZM92 44 105 117Q116 176 151 210.5Q186 245 272 287L296 233Q228 199 202 176.5Q176 154 170 120L157 44Q144 -29 104.5 -65.5Q65 -102 -2 -102H-27L-16 -43H3Q38 -43 61 -20.5Q84 2 92 44Z" glyph-name="braceright.alt" horiz-adv-x="296" unicode="" /><glyph d="M16 -103 142 610H318L307 551H197L93 -43H203L192 -103Z" glyph-name="bracketleft" horiz-adv-x="267" unicode="[" /><glyph d="M81 551 92 610H268L142 -103H-34L-24 -43H86L191 551Z" glyph-name="bracketright" horiz-adv-x="267" unicode="]" /><glyph d="M107 413 142 610H318L307 551H197L173 413ZM16 -103 51 94H117L93 -43H203L192 -103Z" glyph-name="bracketleft.alt" horiz-adv-x="267" unicode="" /><glyph d="M81 551 92 610H268L233 413H167L191 551ZM87 -43 111 94H177L142 -103H-34L-23 -43Z" glyph-name="bracketright.alt" horiz-adv-x="267" unicode="" /><glyph d="M-26 -86 262 594H331L43 -86Z" glyph-name="slash" horiz-adv-x="288" unicode="/" /><glyph d="M142 -86 94 594H155L203 -86Z" glyph-name="backslash" horiz-adv-x="280" unicode="\" /><glyph d="M-31 -108 -21 -51H284L274 -108Z" glyph-name="underscore" horiz-adv-x="354" unicode="_" /><glyph d="M49 226 59 283H306L296 226Z" glyph-name="hyphen" horiz-adv-x="337" unicode="-" /><glyph d="" glyph-name="uni00AD" horiz-adv-x="0" unicode="­" /><glyph d="M49 226 59 283H409L399 226Z" glyph-name="endash" horiz-adv-x="441" unicode="–" /><glyph d="M49 226 59 283H566L556 226Z" glyph-name="emdash" horiz-adv-x="598" unicode="—" /><glyph d="M95 360 136 594H197L156 360ZM16 -86 57 148H118L77 -86Z" glyph-name="brokenbar" horiz-adv-x="197" unicode="¦" /><glyph d="M16 -86 136 594H167L47 -86Z" glyph-name="bar" horiz-adv-x="166" unicode="|" /><glyph d="M16 -86 136 594H197L77 -86Z" glyph-name="bar.alt" horiz-adv-x="196" unicode="" /><glyph d="M159 432 112 455Q142 526 157.5 565Q173 604 186 641L253 615Q229 564 207 521Q185 478 159 432Z" glyph-name="apostrophe" horiz-adv-x="249" unicode="ʼ" /><glyph d="M318 86 231 259L379 424L423 385L304 255L374 117ZM147 86 60 259L207 424L251 385L133 255L203 117Z" glyph-name="guillemotleft" horiz-adv-x="452" unicode="«" /><glyph d="M336 255 266 393L322 424L409 251L261 86L217 125ZM164 255 94 393L150 424L237 251L89 86L45 125Z" glyph-name="guillemotright" horiz-adv-x="451" unicode="»" /><glyph d="M147 86 60 259L208 424L252 385L133 255L203 117Z" glyph-name="guilsinglleft" horiz-adv-x="281" unicode="‹" /><glyph d="M164 255 94 393L150 424L237 251L89 86L45 125Z" glyph-name="guilsinglright" horiz-adv-x="279" unicode="›" /><glyph d="M37 -104 -10 -81Q20 -10 35.5 29Q51 68 64 105L131 79Q112 40 92.5 1Q73 -38 37 -104Z" glyph-name="quotesinglbase" horiz-adv-x="204" unicode="‚" /><glyph d="M182 -104 135 -81Q165 -10 180.5 29Q196 68 209 105L276 79Q257 40 237.5 1Q218 -38 182 -104ZM37 -104 -10 -81Q20 -10 35.5 29Q51 68 64 105L131 79Q112 40 92.5 1Q73 -38 37 -104Z" glyph-name="quotedblbase" horiz-adv-x="349" unicode="„" /><glyph d="M157 401 90 427Q109 466 128.5 505Q148 544 184 610L231 587Q201 516 185.5 477Q170 438 157 401Z" glyph-name="quoteleft" horiz-adv-x="205" unicode="‘" /><glyph d="M302 401 235 427Q254 466 273.5 505Q293 544 329 610L376 587Q346 516 330.5 477Q315 438 302 401ZM157 401 90 427Q109 466 128.5 505Q148 544 184 610L231 587Q201 516 185.5 477Q170 438 157 401Z" glyph-name="quotedblleft" horiz-adv-x="350" unicode="“" /><glyph d="M136 401 89 424Q119 495 134.5 534Q150 573 163 610L230 584Q211 545 191.5 506Q172 467 136 401Z" glyph-name="quoteright" horiz-adv-x="204" unicode="’" /><glyph d="M281 401 234 424Q264 495 279.5 534Q295 573 308 610L375 584Q356 545 336.5 506Q317 467 281 401ZM136 401 89 424Q119 495 134.5 534Q150 573 163 610L230 584Q211 545 191.5 506Q172 467 136 401Z" glyph-name="quotedblright" horiz-adv-x="349" unicode="”" /><glyph d="M136 401 89 424Q119 495 134.5 534Q150 573 163 610L230 584Q211 545 191.5 506Q172 467 136 401Z" glyph-name="quotesingle" horiz-adv-x="204" unicode="'" /><glyph d="M281 401 234 424Q264 495 279.5 534Q295 573 308 610L375 584Q356 545 336.5 506Q317 467 281 401ZM136 401 89 424Q119 495 134.5 534Q150 573 163 610L230 584Q211 545 191.5 506Q172 467 136 401Z" glyph-name="quotedbl" horiz-adv-x="349" unicode="&quot;" /><glyph d="M175 121 64 254L207 374L315 239Z" glyph-name="bullet" horiz-adv-x="365" unicode="•" /><glyph d="M71 237 77 271Q85 320 115 345.5Q145 371 193 371Q242 371 264.5 344.5Q287 318 279 271L273 237Q265 188 235 162.5Q205 137 157 137Q108 137 85.5 163.5Q63 190 71 237Z" glyph-name="bullet.alt" horiz-adv-x="333" unicode="" /><glyph d="M140 269Q102 287 86 322.5Q70 358 80 403Q91 456 139.5 487.5Q188 519 258 519Q295 519 328.5 511Q362 503 395 486L365 430Q338 444 308.5 452Q279 460 252 460Q207 460 178.5 441Q150 422 144 388Q136 345 160 320Q184 295 230 294L226 241Q167 231 133.5 205.5Q100 180 93 139Q85 95 110.5 72Q136 49 192 49Q219 49 245.5 54Q272 59 304 71L339 271H474L464 214H393L361 32Q296 5 259.5 -3Q223 -11 183 -11Q97 -11 56 30Q15 71 27 139Q35 184 63.5 217Q92 250 140 269Z" glyph-name="ampersand" horiz-adv-x="490" unicode="&amp;" /><glyph d="M257 508 571 508L465 -97H399L495 451H425L329 -97H263L359 451H265Q216 451 185.5 421Q155 391 145 333L136 286Q127 235 145.5 209Q164 183 207 183Q220 183 234 186Q248 189 263 196L281 149Q259 137 237.5 131.5Q216 126 193 126Q122 126 90 169Q58 212 70 286L79 333Q94 419 139 463.5Q184 508 257 508Z" glyph-name="paragraph" horiz-adv-x="586" unicode="¶" /><glyph d="M205 470 227 594H293L271 470H393L383 413H261L189 0H123L195 413H73L83 470Z" glyph-name="dagger" horiz-adv-x="380" unicode="†" /><glyph d="M205 470 227 594H293L271 470H393L383 413H261L205 95H327L317 38H195L173 -86H107L129 38H7L17 95H139L195 413H73L83 470Z" glyph-name="daggerdbl" horiz-adv-x="380" unicode="‡" /><glyph d="M287 282Q292 308 273.5 325Q255 342 193 373Q163 365 145.5 351.5Q128 338 125 319Q121 295 136 278.5Q151 262 212 235L231 226Q255 235 269 249Q283 263 287 282ZM140 407Q117 426 108.5 448Q100 470 104 497Q113 549 153 577Q193 605 259 605Q293 605 326.5 597.5Q360 590 389 575L360 520Q329 535 305 541Q281 547 256 547Q221 547 197.5 533.5Q174 520 170 497Q166 474 179 457.5Q192 441 244 416Q313 382 336.5 351.5Q360 321 353 278Q348 251 330.5 228.5Q313 206 284 190Q304 171 311.5 148Q319 125 314 97Q305 46 261.5 17.5Q218 -11 151 -11Q118 -11 84 -4Q50 3 17 17L39 73Q70 61 99 54.5Q128 48 152 48Q195 48 219 61.5Q243 75 248 101Q253 128 236 146.5Q219 165 171 187Q100 220 77 248.5Q54 277 60 316Q65 349 84.5 371Q104 393 140 407Z" glyph-name="section" horiz-adv-x="390" unicode="§" /><glyph d="M224 588 235 695H302L278 588ZM188 527 93 555L115 616L211 578ZM301 522 290 575L390 611L406 548ZM161 396 114 438L188 512L229 478ZM287 389 245 478L291 506L342 420Z" glyph-name="asterisk" horiz-adv-x="378" unicode="*" /><glyph d="M46 474 52 508H201L195 474H140L110 305H71L101 474ZM321 382 403 508H451L415 305H376L400 439L333 334H300L268 440L244 305H206L242 508H288Z" glyph-name="trademark" horiz-adv-x="503" unicode="™" /><glyph d="M297 203Q210 203 160 252Q110 301 110 381V427Q110 507 160 556Q210 605 297 605Q384 605 434 556Q484 507 484 427V381Q484 301 434 252Q384 203 297 203ZM297 238Q368 238 406 275Q444 312 444 380V428Q444 496 406 533Q368 570 297 570Q226 570 188 533Q150 496 150 428V380Q150 312 188 275Q226 238 297 238ZM231 305 231 508H299Q334 508 353.5 489.5Q373 471 373 439V433Q373 413 365.5 397Q358 381 344 373L382 305H339L306 366Q299 366 292.5 367Q286 368 279 371L286 402Q289 401 294.5 400Q300 399 306 399Q320 399 326.5 407.5Q333 416 333 433V439Q333 459 324 467Q315 475 293 475H270V305Z" glyph-name="registered" horiz-adv-x="523" unicode="®" /><glyph d="M84 162 84 250Q84 394 173 480.5Q262 567 416 567Q571 567 660 480Q749 393 749 250V162Q749 19 660 -67.5Q571 -154 416 -154Q262 -154 173 -67.5Q84 19 84 162ZM690 159 690 252Q690 374 618 443.5Q546 513 416 513Q286 513 214 443.5Q142 374 142 252V159Q142 37 214 -33Q286 -103 416 -103Q546 -103 618 -33Q690 37 690 159ZM281 159 281 256Q281 328 322 366.5Q363 405 440 405Q465 405 491.5 399Q518 393 543 381L520 331Q489 345 470.5 349Q452 353 433 353Q387 353 364 328.5Q341 304 341 256V159Q341 109 364.5 86Q388 63 438 63Q456 63 479.5 68.5Q503 74 529 85L551 35Q520 21 493.5 15.5Q467 10 438 10Q360 10 320.5 47.5Q281 85 281 159Z" glyph-name="copyright" horiz-adv-x="833" unicode="©" /><glyph d="M63 167 78 250Q104 398 204 482.5Q304 567 460 567Q623 567 695.5 486.5Q768 406 742 260L733 207Q716 111 674.5 60.5Q633 10 570 10Q533 10 509 27.5Q485 45 479 75Q460 43 428 26Q396 9 355 9Q290 9 258.5 49.5Q227 90 239 154L257 259Q269 326 311.5 365Q354 404 417 404Q449 404 474 391Q499 378 512 355L531 394H577L530 129Q524 94 535 77.5Q546 61 574 61Q612 61 637 96.5Q662 132 675 205L685 263Q707 389 650 451Q593 513 455 513Q325 513 241 443.5Q157 374 136 252L121 164Q99 42 151 -29.5Q203 -101 319 -101Q356 -101 383.5 -96.5Q411 -92 438 -82L457 -129Q430 -141 394 -147.5Q358 -154 314 -154Q175 -154 106.5 -64.5Q38 25 63 167ZM479 176 491 246Q500 297 481.5 324Q463 351 419 351Q377 351 351 327.5Q325 304 317 259L299 154Q291 109 308.5 85Q326 61 366 61Q408 61 438.5 92Q469 123 479 176Z" glyph-name="at" horiz-adv-x="803" unicode="@" /><glyph d="M230 364 237 404Q242 434 231.5 450.5Q221 467 196 467Q169 467 154.5 453.5Q140 440 135 411L123 343Q118 316 128 302Q138 288 161 288Q189 288 206 307Q223 326 230 364ZM69 345 81 413Q89 458 119 485.5Q149 513 194 513Q213 513 231 503.5Q249 494 257 480L269 508H310L264 248H223L219 276Q209 261 190 251Q171 241 152 241Q105 241 83 270Q61 299 69 345Z" glyph-name="ordfeminine" horiz-adv-x="311" unicode="ª" /><glyph d="M70 349 80 408Q88 458 120 485.5Q152 513 202 513Q253 513 277.5 484Q302 455 294 406L284 347Q276 297 244 270Q212 243 162 243Q111 243 86.5 272Q62 301 70 349ZM230 349 240 408Q245 439 235 453.5Q225 468 199 468Q171 468 155 452.5Q139 437 134 406L124 347Q119 317 129 302.5Q139 288 165 288Q193 288 209 303Q225 318 230 349Z" glyph-name="ordmasculine" horiz-adv-x="304" unicode="º" /><glyph d="M205 151 347 151L408 357H266ZM424 412 453 508H518L489 412H588L578 357H473L412 151H511L501 96H396L367 0H302L331 96H189L160 0H95L124 96H25L35 151H140L201 357H102L112 412H217L246 508H311L282 412Z" glyph-name="numbersign" horiz-adv-x="597" unicode="#" /><glyph d="M38 335 106 335Q127 425 181.5 472Q236 519 320 519Q352 519 381 512.5Q410 506 436 493L405 437Q382 449 359 454.5Q336 460 313 460Q259 460 222.5 428Q186 396 172 335H309L299 281H161L153 233H291L281 179H143Q135 114 159.5 81.5Q184 49 241 49Q267 49 294 55.5Q321 62 348 75L369 20Q327 2 296.5 -4.5Q266 -11 232 -11Q145 -11 105 39Q65 89 77 179H10L20 233H87L95 281H28Z" glyph-name="Euro" horiz-adv-x="422" unicode="€" /><glyph d="M212 517 225 594H284L271 518Q300 515 327.5 507Q355 499 380 486L349 430Q322 444 292.5 452Q263 460 236 460Q191 460 162.5 441Q134 422 128 388Q125 368 130.5 352.5Q136 337 153 321Q164 312 186.5 296.5Q209 281 214 277Q255 247 271.5 233Q288 219 299 206Q317 183 322.5 158Q328 133 321 103Q310 54 269.5 25Q229 -4 163 -10L150 -85H91L104 -10Q79 -8 52.5 -1.5Q26 5 -6 17L18 74Q54 60 82.5 54.5Q111 49 142 49Q194 49 222 66.5Q250 84 257 120Q260 139 254 154.5Q248 170 232 186Q221 195 198.5 211Q176 227 171 231Q129 262 113.5 275.5Q98 289 88 301Q70 324 64 349Q58 374 64 403Q74 450 113.5 480.5Q153 511 212 517Z" glyph-name="dollar" horiz-adv-x="368" unicode="$" /><glyph d="M210 226 380 508H454L297 253H359L349 199H263L234 151H341L331 97H224L207 0H141L158 97H51L61 151H168L155 199H69L79 253H141L74 508H140Z" glyph-name="yen" horiz-adv-x="422" unicode="¥" /><glyph d="M95 283 106 344Q122 431 172.5 475Q223 519 308 519Q337 519 366 512Q395 505 423 491L393 435Q366 448 343 454Q320 460 300 460Q247 460 214.5 430.5Q182 401 172 344L161 283H300L290 226H151L145 191Q138 151 118.5 113.5Q99 76 76 55Q91 60 106.5 63Q122 66 138 66Q149 66 160 64Q171 62 190 57Q209 51 219.5 49.5Q230 48 240 48Q259 48 278 53.5Q297 59 325 72L349 17Q314 2 289.5 -4.5Q265 -11 237 -11Q224 -11 211 -9Q198 -7 173 -2Q148 4 135 6Q122 8 109 8Q89 8 66.5 3.5Q44 -1 20 -11L-6 42Q36 87 54 119Q72 151 79 191L85 226H19L29 283Z" glyph-name="sterling" horiz-adv-x="392" unicode="£" /><glyph d="M229 422 242 498H301L288 422Q310 420 334 413Q358 406 374 397L345 342Q324 353 301 359Q278 365 254 365Q202 365 170.5 338.5Q139 312 131 260L114 159Q104 101 123.5 74.5Q143 48 196 48Q217 48 244 54Q271 60 302 72L321 18Q290 5 265 -1.5Q240 -8 214 -10L201 -85H142L155 -9Q90 0 63 42Q36 84 48 159L65 260Q77 332 118.5 373.5Q160 415 229 422Z" glyph-name="cent" horiz-adv-x="382" unicode="¢" /><glyph d="M110 283 130 360Q151 441 196.5 480Q242 519 314 519Q340 519 364.5 514Q389 509 410 499L380 443Q362 451 343.5 455.5Q325 460 308 460Q264 460 237 435.5Q210 411 196 360L176 283H313L302 226H160L93 -32Q72 -113 31 -152Q-10 -191 -75 -191Q-88 -191 -108.5 -186.5Q-129 -182 -147 -176L-126 -119Q-109 -126 -94.5 -129Q-80 -132 -68 -132Q-31 -132 -9 -109Q13 -86 27 -32L94 226H31L42 283Z" glyph-name="florin" horiz-adv-x="367" unicode="ƒ" /><glyph d="M239 424Q272 424 300 415.5Q328 407 349 390L400 441L442 399L386 343Q395 324 399.5 303.5Q404 283 404 260V216Q404 193 399.5 172.5Q395 152 386 133L442 77L400 35L349 86Q328 69 300 60.5Q272 52 239 52Q206 52 178 60.5Q150 69 129 86L78 35L36 77L92 133Q83 152 78.5 172.5Q74 193 74 216V260Q74 283 78.5 303.5Q83 324 92 343L36 399L78 441L129 390Q150 407 178 415.5Q206 424 239 424ZM338 216 338 260Q338 313 313 340Q288 367 239 367Q190 367 165 340Q140 313 140 260V216Q140 163 165 136Q190 109 239 109Q288 109 313 136Q338 163 338 216Z" glyph-name="currency" horiz-adv-x="467" unicode="¤" /><glyph d="M230 364 237 404Q242 434 231.5 450.5Q221 467 196 467Q169 467 154.5 453.5Q140 440 135 411L123 343Q118 316 128 302Q138 288 161 288Q189 288 206 307Q223 326 230 364ZM69 345 81 413Q89 458 119 485.5Q149 513 194 513Q213 513 231 503.5Q249 494 257 480L269 508H310L264 248H223L219 276Q209 261 190 251Q171 241 152 241Q105 241 83 270Q61 299 69 345Z" glyph-name="a.sup" horiz-adv-x="311" unicode="" /><glyph d="M230 364 275 620H329L264 248H223L219 276Q209 261 190 251Q171 241 152 241Q105 241 83 270Q61 299 69 345L81 412Q89 459 119.5 486Q150 513 196 513Q206 513 215.5 511Q225 509 234 505L219 463Q211 465 205.5 466Q200 467 195 467Q169 467 154.5 453Q140 439 135 410L123 343Q118 316 128 302Q138 288 161 288Q189 288 206 307Q223 326 230 364Z" glyph-name="d.sup" horiz-adv-x="311" unicode="" /><glyph d="M69 342 80 408Q89 457 120.5 485Q152 513 201 513Q251 513 275.5 483.5Q300 454 292 406Q289 390 286.5 376Q284 362 281 352H124L122 340Q116 310 127 297Q138 284 170 284Q181 284 197.5 288.5Q214 293 240 303L257 259Q216 243 200 240Q184 237 167 237Q112 237 86.5 264.5Q61 292 69 342ZM237 396 240 410Q246 439 235 454Q224 469 198 469Q171 469 154.5 453.5Q138 438 134 408L132 396Z" glyph-name="e.sup" horiz-adv-x="297" unicode="" /><glyph d="M61 248 127 620H181L157 486Q170 500 187.5 507.5Q205 515 223 515Q269 515 289.5 486.5Q310 458 302 411L273 248H219L249 413Q254 441 245 454.5Q236 468 214 468Q186 468 167 450.5Q148 433 143 403L115 248Z" glyph-name="h.sup" horiz-adv-x="316" unicode="" /><glyph d="M61 248 127 620H181L115 248Z" glyph-name="l.sup" horiz-adv-x="162" unicode="" /><glyph d="M221 515Q246 515 262 504.5Q278 494 287 472Q302 493 323.5 504Q345 515 370 515Q412 515 430.5 486.5Q449 458 441 410L413 248H359L389 413Q394 440 386.5 454Q379 468 361 468Q334 468 315 450.5Q296 433 291 403L264 248H210L240 413Q245 440 237.5 454Q230 468 211 468Q185 468 166.5 450.5Q148 433 143 403L115 248H61L107 508H148L152 480Q162 495 181.5 505Q201 515 221 515Z" glyph-name="m.sup" horiz-adv-x="456" unicode="" /><glyph d="M148 508 152 480Q162 495 182 505Q202 515 223 515Q268 515 288.5 486.5Q309 458 301 411L274 248H219L248 413Q253 440 244.5 454Q236 468 214 468Q186 468 167 450.5Q148 433 143 403L116 248H61L107 508Z" glyph-name="n.sup" horiz-adv-x="317" unicode="" /><glyph d="M70 349 80 408Q88 458 120 485.5Q152 513 202 513Q253 513 277.5 484Q302 455 294 406L284 347Q276 297 244 270Q212 243 162 243Q111 243 86.5 272Q62 301 70 349ZM230 349 240 408Q245 439 235 453.5Q225 468 199 468Q171 468 155 452.5Q139 437 134 406L124 347Q119 317 129 302.5Q139 288 165 288Q193 288 209 303Q225 318 230 349Z" glyph-name="o.sup" horiz-adv-x="304" unicode="" /><glyph d="M148 508 152 475Q166 495 183 505Q200 515 220 515Q234 515 247.5 512Q261 509 271 504L247 455Q235 461 227 463Q219 465 210 465Q181 465 162.5 440.5Q144 416 136 367L116 248H61L107 508Z" glyph-name="r.sup" horiz-adv-x="225" unicode="" /><glyph d="M135 358Q93 381 80.5 399.5Q68 418 72 442Q77 475 104.5 494Q132 513 173 513Q195 513 217 507Q239 501 259 490L237 447Q219 457 202 462Q185 467 171 467Q152 467 140 460Q128 453 126 441Q124 430 129.5 422Q135 414 167 397Q208 376 223 355.5Q238 335 233 307Q227 274 198 255.5Q169 237 127 237Q105 237 82.5 242Q60 247 37 257L55 302Q76 293 94 288.5Q112 284 128 284Q151 284 163.5 290.5Q176 297 179 312Q181 325 173.5 333Q166 341 135 358Z" glyph-name="s.sup" horiz-adv-x="245" unicode="" /><glyph d="M140 565 185 565L175 508H226L217 464H166L142 327Q139 306 142.5 297.5Q146 289 159 289Q164 289 168.5 289.5Q173 290 177 291L181 243Q173 242 166.5 241.5Q160 241 154 241Q115 241 98.5 264Q82 287 89 329L112 464H61L69 508Q109 508 119 517Q129 526 140 565Z" glyph-name="t.sup" horiz-adv-x="200" unicode="" /><glyph d="M238 534 159 586L188 626L264 569ZM69 342 80 408Q89 457 120.5 485Q152 513 201 513Q251 513 275.5 483.5Q300 454 292 406Q289 390 286.5 376Q284 362 281 352H124L122 340Q116 310 127 297Q138 284 170 284Q181 284 197.5 288.5Q214 293 240 303L257 259Q216 243 200 240Q184 237 167 237Q112 237 86.5 264.5Q61 292 69 342ZM237 396 240 410Q246 439 235.5 454Q225 469 198 469Q172 469 155.5 453.5Q139 438 134 408L132 396Z" glyph-name="egrave.sup" horiz-adv-x="297" unicode="" /><glyph d="M46 188 70 320Q87 422 136.5 470.5Q186 519 271 519Q357 519 393 468.5Q429 418 412 320L388 188Q371 86 321.5 37.5Q272 -11 187 -11Q101 -11 65 39.5Q29 90 46 188ZM322 188 346 320Q359 392 339 426.5Q319 461 265 461Q211 461 180 427Q149 393 136 320L112 188Q99 115 118.5 81.5Q138 48 193 48Q248 48 278.5 81.5Q309 115 322 188Z" glyph-name="zero" horiz-adv-x="442" unicode="0" /><glyph d="M105 418 272 508H338L258 57H380L370 0H60L70 57H192L259 435L131 365Z" glyph-name="one" horiz-adv-x="442" unicode="1" /><glyph d="M138 433 116 488Q156 504 189.5 511.5Q223 519 258 519Q324 519 362 480Q400 441 393 385Q387 338 358.5 299Q330 260 256 203Q183 147 154.5 118.5Q126 90 107 57H331L321 0H21L31 57Q63 110 100 148.5Q137 187 210 245Q271 292 296 321Q321 350 326 378Q332 414 311 437.5Q290 461 252 461Q226 461 199 454.5Q172 448 138 433Z" glyph-name="two" horiz-adv-x="442" unicode="2" /><glyph d="M124 432 102 487Q144 504 177.5 511.5Q211 519 245 519Q312 519 350.5 479.5Q389 440 378 380Q371 343 344.5 312.5Q318 282 281 267Q322 255 343.5 219Q365 183 357 138Q344 67 292 28Q240 -11 156 -11Q128 -11 95 -4Q62 3 27 16L51 73Q80 62 110.5 55.5Q141 49 168 49Q216 49 250 73.5Q284 98 291 138Q300 187 270 212Q240 237 174 237V289Q236 298 271.5 322.5Q307 347 314 385Q320 420 297.5 440.5Q275 461 234 461Q210 461 185 454.5Q160 448 124 432Z" glyph-name="three" horiz-adv-x="442" unicode="3" /><glyph d="M27 160 317 508H400L338 160H410L400 103H328L310 0H247L265 103H17ZM101 160 275 160L323 431Z" glyph-name="four" horiz-adv-x="442" unicode="4" /><glyph d="M99 288 156 508H405L395 450H206L168 306Q185 310 201.5 311.5Q218 313 235 313Q305 313 341.5 268Q378 223 365 153Q352 80 298.5 34.5Q245 -11 165 -11Q135 -11 99 -4Q63 3 31 16L55 73Q84 62 115 55.5Q146 49 172 49Q223 49 257 78Q291 107 300 158Q308 205 285 231Q262 257 211 257Q184 257 161 253.5Q138 250 119 242Z" glyph-name="five" horiz-adv-x="442" unicode="5" /><glyph d="M59 164 86 320Q103 414 157.5 466.5Q212 519 296 519Q322 519 349 513.5Q376 508 397 499L370 442Q351 451 331.5 455.5Q312 460 293 460Q239 460 201.5 423.5Q164 387 152 320L125 164Q115 108 137 77.5Q159 47 210 47Q253 47 282 74Q311 101 319 150L322 168Q330 214 310.5 240Q291 266 250 266Q236 266 223 263.5Q210 261 192 255L174 302Q194 312 216 317Q238 322 261 322Q329 322 364.5 278.5Q400 235 388 168L385 150Q372 75 324 32Q276 -11 202 -11Q119 -11 81.5 36Q44 83 59 164Z" glyph-name="six" horiz-adv-x="442" unicode="6" /><glyph d="M103 451 113 508H446L436 451Q350 355 281.5 243Q213 131 161 0H87Q138 129 204 242Q270 355 351 451Z" glyph-name="seven" horiz-adv-x="442" unicode="7" /><glyph d="M140 281Q115 301 104.5 328Q94 355 99 385Q110 443 156.5 481Q203 519 271 519Q342 519 379 479.5Q416 440 406 385Q400 351 379 320.5Q358 290 321 261Q355 238 369 207Q383 176 376 138Q364 71 313.5 30Q263 -11 187 -11Q109 -11 70 31.5Q31 74 42 139Q51 186 74.5 220Q98 254 140 281ZM272 281Q302 305 319 331Q336 357 341 385Q348 421 327 442Q306 463 266 463Q226 463 198 442Q170 421 164 385Q158 346 181.5 322.5Q205 299 272 281ZM193 48Q240 48 271 71.5Q302 95 310 138Q317 179 295 204Q273 229 189 255Q151 229 133 202.5Q115 176 108 138Q101 95 123.5 71.5Q146 48 193 48Z" glyph-name="eight" horiz-adv-x="442" unicode="8" /><glyph d="M72 340 75 358Q88 432 136.5 475.5Q185 519 259 519Q343 519 378.5 467.5Q414 416 397 320L374 188Q356 89 306.5 39Q257 -11 176 -11Q144 -11 112.5 -4.5Q81 2 55 13L78 70Q99 62 128.5 55.5Q158 49 178 49Q233 49 264 82Q295 115 308 188L331 320Q344 393 325 426.5Q306 460 251 460Q207 460 178.5 433.5Q150 407 141 358L138 340Q130 294 149.5 268Q169 242 210 242Q224 242 237 244.5Q250 247 268 253L286 206Q266 196 244 191Q222 186 199 186Q131 186 95.5 230Q60 274 72 340Z" glyph-name="nine" horiz-adv-x="442" unicode="9" /><glyph d="M55 188 79 320Q96 422 145.5 470.5Q195 519 280 519Q366 519 402 468.5Q438 418 421 320L397 188Q380 86 330.5 37.5Q281 -11 196 -11Q110 -11 74 39.5Q38 90 55 188ZM331 188 355 320Q368 392 348 426.5Q328 461 274 461Q220 461 189 427Q158 393 145 320L121 188Q108 115 127.5 81.5Q147 48 202 48Q257 48 287.5 81.5Q318 115 331 188Z" glyph-name="zero.plf" horiz-adv-x="459" unicode="" /><glyph d="M51 421 213 508H279L189 0H123L200 435L77 368Z" glyph-name="one.plf" horiz-adv-x="304" unicode="" /><glyph d="M110 433 88 488Q128 504 161.5 511.5Q195 519 230 519Q296 519 334 480Q372 441 365 385Q359 338 330.5 299Q302 260 228 203Q155 147 126.5 118.5Q98 90 79 57H303L293 0H-7L3 57Q35 110 72 148.5Q109 187 182 245Q243 292 268 321Q293 350 298 378Q304 414 283 437.5Q262 461 224 461Q198 461 171 454.5Q144 448 110 433Z" glyph-name="two.plf" horiz-adv-x="382" unicode="" /><glyph d="M104 432 82 487Q124 504 157.5 511.5Q191 519 225 519Q292 519 330.5 479.5Q369 440 358 380Q351 343 324.5 312.5Q298 282 261 267Q302 255 323.5 219Q345 183 337 138Q324 67 272 28Q220 -11 136 -11Q108 -11 75 -4Q42 3 7 16L31 73Q60 62 90.5 55.5Q121 49 148 49Q196 49 230 73.5Q264 98 271 138Q280 187 250 212Q220 237 154 237V289Q216 298 251.5 322.5Q287 347 294 385Q300 420 277.5 440.5Q255 461 214 461Q190 461 165 454.5Q140 448 104 432Z" glyph-name="three.plf" horiz-adv-x="392" unicode="" /><glyph d="M20 160 310 508H393L331 160H403L393 103H321L303 0H240L258 103H10ZM94 160 268 160L316 431Z" glyph-name="four.plf" horiz-adv-x="439" unicode="" /><glyph d="M69 288 126 508H375L365 450H176L138 306Q155 310 171.5 311.5Q188 313 205 313Q275 313 311.5 268Q348 223 335 153Q322 80 268.5 34.5Q215 -11 135 -11Q105 -11 69 -4Q33 3 1 16L25 73Q54 62 85 55.5Q116 49 142 49Q193 49 227 78Q261 107 270 158Q278 205 255 231Q232 257 181 257Q154 257 131 253.5Q108 250 89 242Z" glyph-name="five.plf" horiz-adv-x="385" unicode="" /><glyph d="M52 164 79 320Q96 414 150.5 466.5Q205 519 289 519Q315 519 342 513.5Q369 508 390 499L363 442Q344 451 324.5 455.5Q305 460 286 460Q232 460 194.5 423.5Q157 387 145 320L118 164Q108 108 130 77.5Q152 47 203 47Q246 47 275 74Q304 101 312 150L315 168Q323 214 303.5 240Q284 266 243 266Q229 266 216 263.5Q203 261 185 255L167 302Q187 312 209 317Q231 322 254 322Q322 322 357.5 278.5Q393 235 381 168L378 150Q365 75 317 32Q269 -11 195 -11Q112 -11 74.5 36Q37 83 52 164Z" glyph-name="six.plf" horiz-adv-x="431" unicode="" /><glyph d="M62 451 72 508H387L377 451Q301 366 240 262Q179 158 116 0H41Q99 146 160 254.5Q221 363 293 451Z" glyph-name="seven.plf" horiz-adv-x="357" unicode="" /><glyph d="M134 281Q109 301 98.5 328Q88 355 93 385Q104 443 150.5 481Q197 519 265 519Q336 519 373 479.5Q410 440 400 385Q394 351 373 320.5Q352 290 315 261Q349 238 363 207Q377 176 370 138Q358 71 307.5 30Q257 -11 181 -11Q103 -11 64 31.5Q25 74 36 139Q45 186 68.5 220Q92 254 134 281ZM266 281Q296 305 313 331Q330 357 335 385Q342 421 321 442Q300 463 260 463Q220 463 192 442Q164 421 158 385Q152 346 175.5 322.5Q199 299 266 281ZM187 48Q234 48 265 71.5Q296 95 304 138Q311 179 289 204Q267 229 183 255Q145 229 127 202.5Q109 176 102 138Q95 95 117.5 71.5Q140 48 187 48Z" glyph-name="eight.plf" horiz-adv-x="430" unicode="" /><glyph d="M66 340 69 358Q82 432 130.5 475.5Q179 519 253 519Q337 519 372.5 467.5Q408 416 391 320L368 188Q350 89 300.5 39Q251 -11 170 -11Q138 -11 106.5 -4.5Q75 2 49 13L72 70Q93 62 122.5 55.5Q152 49 172 49Q227 49 258 82Q289 115 302 188L325 320Q338 393 319 426.5Q300 460 245 460Q201 460 172.5 433.5Q144 407 135 358L132 340Q124 294 143.5 268Q163 242 204 242Q218 242 231 244.5Q244 247 262 253L280 206Q260 196 238 191Q216 186 193 186Q125 186 89.5 230Q54 274 66 340Z" glyph-name="nine.plf" horiz-adv-x="430" unicode="" /><glyph d="M46 188 70 320Q87 422 136.5 470.5Q186 519 271 519Q357 519 393 468.5Q429 418 412 320L388 188Q371 86 321.5 37.5Q272 -11 187 -11Q101 -11 65 39.5Q29 90 46 188ZM322 188 346 320Q359 392 339 426.5Q319 461 265 461Q211 461 180 427Q149 393 136 320L112 188Q99 115 118.5 81.5Q138 48 193 48Q248 48 278.5 81.5Q309 115 322 188Z" glyph-name="zero.tlf" horiz-adv-x="442" unicode="" /><glyph d="M105 418 272 508H338L258 57H380L370 0H60L70 57H192L259 435L131 365Z" glyph-name="one.tlf" horiz-adv-x="442" unicode="" /><glyph d="M138 433 116 488Q156 504 189.5 511.5Q223 519 258 519Q324 519 362 480Q400 441 393 385Q387 338 358.5 299Q330 260 256 203Q183 147 154.5 118.5Q126 90 107 57H331L321 0H21L31 57Q63 110 100 148.5Q137 187 210 245Q271 292 296 321Q321 350 326 378Q332 414 311 437.5Q290 461 252 461Q226 461 199 454.5Q172 448 138 433Z" glyph-name="two.tlf" horiz-adv-x="442" unicode="" /><glyph d="M124 432 102 487Q144 504 177.5 511.5Q211 519 245 519Q312 519 350.5 479.5Q389 440 378 380Q371 343 344.5 312.5Q318 282 281 267Q322 255 343.5 219Q365 183 357 138Q344 67 292 28Q240 -11 156 -11Q128 -11 95 -4Q62 3 27 16L51 73Q80 62 110.5 55.5Q141 49 168 49Q216 49 250 73.5Q284 98 291 138Q300 187 270 212Q240 237 174 237V289Q236 298 271.5 322.5Q307 347 314 385Q320 420 297.5 440.5Q275 461 234 461Q210 461 185 454.5Q160 448 124 432Z" glyph-name="three.tlf" horiz-adv-x="442" unicode="" /><glyph d="M27 160 317 508H400L338 160H410L400 103H328L310 0H247L265 103H17ZM101 160 275 160L323 431Z" glyph-name="four.tlf" horiz-adv-x="442" unicode="" /><glyph d="M99 288 156 508H405L395 450H206L168 306Q185 310 201.5 311.5Q218 313 235 313Q305 313 341.5 268Q378 223 365 153Q352 80 298.5 34.5Q245 -11 165 -11Q135 -11 99 -4Q63 3 31 16L55 73Q84 62 115 55.5Q146 49 172 49Q223 49 257 78Q291 107 300 158Q308 205 285 231Q262 257 211 257Q184 257 161 253.5Q138 250 119 242Z" glyph-name="five.tlf" horiz-adv-x="442" unicode="" /><glyph d="M59 164 86 320Q103 414 157.5 466.5Q212 519 296 519Q322 519 349 513.5Q376 508 397 499L370 442Q351 451 331.5 455.5Q312 460 293 460Q239 460 201.5 423.5Q164 387 152 320L125 164Q115 108 137 77.5Q159 47 210 47Q253 47 282 74Q311 101 319 150L322 168Q330 214 310.5 240Q291 266 250 266Q236 266 223 263.5Q210 261 192 255L174 302Q194 312 216 317Q238 322 261 322Q329 322 364.5 278.5Q400 235 388 168L385 150Q372 75 324 32Q276 -11 202 -11Q119 -11 81.5 36Q44 83 59 164Z" glyph-name="six.tlf" horiz-adv-x="442" unicode="" /><glyph d="M103 451 113 508H446L436 451Q350 355 281.5 243Q213 131 161 0H87Q138 129 204 242Q270 355 351 451Z" glyph-name="seven.tlf" horiz-adv-x="442" unicode="" /><glyph d="M140 281Q115 301 104.5 328Q94 355 99 385Q110 443 156.5 481Q203 519 271 519Q342 519 379 479.5Q416 440 406 385Q400 351 379 320.5Q358 290 321 261Q355 238 369 207Q383 176 376 138Q364 71 313.5 30Q263 -11 187 -11Q109 -11 70 31.5Q31 74 42 139Q51 186 74.5 220Q98 254 140 281ZM272 281Q302 305 319 331Q336 357 341 385Q348 421 327 442Q306 463 266 463Q226 463 198 442Q170 421 164 385Q158 346 181.5 322.5Q205 299 272 281ZM193 48Q240 48 271 71.5Q302 95 310 138Q317 179 295 204Q273 229 189 255Q151 229 133 202.5Q115 176 108 138Q101 95 123.5 71.5Q146 48 193 48Z" glyph-name="eight.tlf" horiz-adv-x="442" unicode="" /><glyph d="M72 340 75 358Q88 432 136.5 475.5Q185 519 259 519Q343 519 378.5 467.5Q414 416 397 320L374 188Q356 89 306.5 39Q257 -11 176 -11Q144 -11 112.5 -4.5Q81 2 55 13L78 70Q99 62 128.5 55.5Q158 49 178 49Q233 49 264 82Q295 115 308 188L331 320Q344 393 325 426.5Q306 460 251 460Q207 460 178.5 433.5Q150 407 141 358L138 340Q130 294 149.5 268Q169 242 210 242Q224 242 237 244.5Q250 247 268 253L286 206Q266 196 244 191Q222 186 199 186Q131 186 95.5 230Q60 274 72 340Z" glyph-name="nine.tlf" horiz-adv-x="442" unicode="" /><glyph d="M51 162 67 251Q81 333 131.5 378.5Q182 424 262 424Q343 424 381.5 376Q420 328 407 251L391 162Q377 80 326.5 34.5Q276 -11 196 -11Q115 -11 76.5 37Q38 85 51 162ZM325 162 341 251Q351 309 330 337.5Q309 366 257 366Q205 366 174 337Q143 308 133 251L117 162Q107 104 128 75.5Q149 47 201 47Q253 47 284 75.5Q315 104 325 162Z" glyph-name="zero.posf" horiz-adv-x="458" unicode="" /><glyph d="M34 327 194 413H260L188 0H122L182 342L55 274Z" glyph-name="one.posf" horiz-adv-x="302" unicode="" /><glyph d="M95 338 73 393Q113 409 146.5 416.5Q180 424 215 424Q283 424 321.5 385Q360 346 350 286Q344 253 320 222Q296 191 249 155Q231 142 182 109Q133 76 111 57H310L300 0H10L20 58Q43 79 70.5 99.5Q98 120 151 155Q229 207 253.5 234Q278 261 283 290Q289 325 268 345.5Q247 366 209 366Q183 366 156 359.5Q129 353 95 338Z" glyph-name="two.posf" horiz-adv-x="387" unicode="" /><glyph d="M77 337 55 392Q97 409 130.5 416.5Q164 424 198 424Q266 424 304.5 384.5Q343 345 331 285Q325 248 298 217.5Q271 187 234 172Q275 160 296.5 124Q318 88 310 43Q297 -28 245 -67Q193 -106 109 -106Q81 -106 48 -99Q15 -92 -20 -79L4 -22Q33 -33 63.5 -39.5Q94 -46 121 -46Q169 -46 203 -21.5Q237 3 244 43Q253 92 223 117Q193 142 127 142V194Q189 203 224.5 227.5Q260 252 267 290Q273 325 250.5 345.5Q228 366 187 366Q163 366 138 359.5Q113 353 77 337Z" glyph-name="three.posf" horiz-adv-x="382" unicode="" /><glyph d="M2 84 288 413H371L313 84H385L375 27H303L281 -95H218L240 27H-8ZM76 84 250 84L294 336Z" glyph-name="four.posf" horiz-adv-x="440" unicode="" /><glyph d="M51 193 108 413H357L347 355H158L120 211Q137 215 153.5 216.5Q170 218 187 218Q257 218 293.5 173Q330 128 317 58Q304 -15 250.5 -60.5Q197 -106 117 -106Q87 -106 51 -99Q15 -92 -17 -79L7 -22Q36 -33 67 -39.5Q98 -46 124 -46Q175 -46 209 -17Q243 12 252 63Q260 110 237 136Q214 162 163 162Q136 162 113.5 158.5Q91 155 72 147Z" glyph-name="five.posf" horiz-adv-x="384" unicode="" /><glyph d="M52 164 79 320Q96 414 150.5 466.5Q205 519 289 519Q315 519 342 513.5Q369 508 390 499L363 442Q344 451 324.5 455.5Q305 460 286 460Q232 460 194.5 423.5Q157 387 145 320L118 164Q108 108 130 77.5Q152 47 203 47Q246 47 275 74Q304 101 312 150L315 168Q323 214 303.5 240Q284 266 243 266Q229 266 216 263.5Q203 261 185 255L167 302Q187 312 209 317Q231 322 254 322Q322 322 357.5 278.5Q393 235 381 168L378 150Q365 75 317 32Q269 -11 195 -11Q112 -11 74.5 36Q37 83 52 164Z" glyph-name="six.posf" horiz-adv-x="432" unicode="" /><glyph d="M46 356 56 413H371L361 356Q285 271 224 167Q163 63 100 -95H25Q83 51 144 159.5Q205 268 277 356Z" glyph-name="seven.posf" horiz-adv-x="362" unicode="" /><glyph d="M134 281Q109 301 98.5 328Q88 355 93 385Q104 443 150.5 481Q197 519 265 519Q336 519 373 479.5Q410 440 400 385Q394 351 373 320.5Q352 290 315 261Q349 238 363 207Q377 176 370 138Q358 71 307.5 30Q257 -11 181 -11Q103 -11 64 31.5Q25 74 36 139Q45 186 68.5 220Q92 254 134 281ZM266 281Q296 305 313 331Q330 357 335 385Q342 421 321 442Q300 463 260 463Q220 463 192 442Q164 421 158 385Q152 346 175.5 322.5Q199 299 266 281ZM187 48Q234 48 265 71.5Q296 95 304 138Q311 179 289 204Q267 229 183 255Q145 229 127 202.5Q109 176 102 138Q95 95 117.5 71.5Q140 48 187 48Z" glyph-name="eight.posf" horiz-adv-x="431" unicode="" /><glyph d="M50 245 53 263Q66 337 114.5 380.5Q163 424 237 424Q321 424 356.5 372.5Q392 321 375 225L352 93Q334 -6 284.5 -56Q235 -106 154 -106Q122 -106 90.5 -99.5Q59 -93 33 -82L56 -25Q77 -33 106.5 -39.5Q136 -46 156 -46Q211 -46 242 -13Q273 20 286 93L309 225Q322 298 303 331.5Q284 365 229 365Q185 365 156.5 338.5Q128 312 119 263L116 245Q108 199 127.5 173Q147 147 188 147Q202 147 215 149.5Q228 152 246 158L264 111Q244 101 222 96Q200 91 177 91Q109 91 73.5 135Q38 179 50 245Z" glyph-name="nine.posf" horiz-adv-x="432" unicode="" /><glyph d="M45 162 61 251Q75 333 125 378.5Q175 424 254 424Q333 424 371.5 376Q410 328 397 251L381 162Q367 80 317 34.5Q267 -11 188 -11Q109 -11 70.5 37Q32 85 45 162ZM315 162 331 251Q341 308 320.5 337Q300 366 249 366Q198 366 167.5 337Q137 308 127 251L111 162Q101 104 121.5 75.5Q142 47 193 47Q244 47 274.5 76Q305 105 315 162Z" glyph-name="zero.tosf" horiz-adv-x="442" unicode="" /><glyph d="M95 326 256 413H322L259 57H381L371 0H61L71 57H193L243 340L121 273Z" glyph-name="one.tosf" horiz-adv-x="442" unicode="" /><glyph d="M117 338 95 393Q135 409 168.5 416.5Q202 424 237 424Q305 424 343.5 385Q382 346 372 286Q366 253 342 222Q318 191 271 155Q253 142 204 109Q155 76 133 57H332L322 0H32L42 58Q65 79 92.5 99.5Q120 120 173 155Q251 207 275.5 234Q300 261 305 290Q311 325 290 345.5Q269 366 231 366Q205 366 178 359.5Q151 353 117 338Z" glyph-name="two.tosf" horiz-adv-x="442" unicode="" /><glyph d="M103 337 81 392Q123 409 156.5 416.5Q190 424 224 424Q292 424 330.5 384.5Q369 345 357 285Q351 248 324 217.5Q297 187 260 172Q301 160 322.5 124Q344 88 336 43Q323 -28 271 -67Q219 -106 135 -106Q107 -106 74 -99Q41 -92 6 -79L30 -22Q59 -33 89.5 -39.5Q120 -46 147 -46Q195 -46 229 -21.5Q263 3 270 43Q279 92 249 117Q219 142 153 142V194Q215 203 250.5 227.5Q286 252 293 290Q299 325 276.5 345.5Q254 366 213 366Q189 366 164 359.5Q139 353 103 337Z" glyph-name="three.tosf" horiz-adv-x="442" unicode="" /><glyph d="M5 84 291 413H374L316 84H388L378 27H306L284 -95H221L243 27H-5ZM79 84 253 84L297 336Z" glyph-name="four.tosf" horiz-adv-x="442" unicode="" /><glyph d="M82 193 139 413H388L378 355H189L151 211Q168 215 184.5 216.5Q201 218 218 218Q288 218 324.5 173Q361 128 348 58Q335 -15 281.5 -60.5Q228 -106 148 -106Q118 -106 82 -99Q46 -92 14 -79L38 -22Q67 -33 98 -39.5Q129 -46 155 -46Q206 -46 240 -17Q274 12 283 63Q291 110 268 136Q245 162 194 162Q167 162 144.5 158.5Q122 155 103 147Z" glyph-name="five.tosf" horiz-adv-x="442" unicode="" /><glyph d="M59 164 86 320Q103 414 157.5 466.5Q212 519 296 519Q322 519 349 513.5Q376 508 397 499L370 442Q351 451 331.5 455.5Q312 460 293 460Q239 460 201.5 423.5Q164 387 152 320L125 164Q115 108 137 77.5Q159 47 210 47Q253 47 282 74Q311 101 319 150L322 168Q330 214 310.5 240Q291 266 250 266Q236 266 223 263.5Q210 261 192 255L174 302Q194 312 216 317Q238 322 261 322Q329 322 364.5 278.5Q400 235 388 168L385 150Q372 75 324 32Q276 -11 202 -11Q119 -11 81.5 36Q44 83 59 164Z" glyph-name="six.tosf" horiz-adv-x="442" unicode="" /><glyph d="M72 356 82 413H415L405 356Q319 260 250.5 148Q182 36 130 -95H56Q107 34 173 147Q239 260 320 356Z" glyph-name="seven.tosf" horiz-adv-x="442" unicode="" /><glyph d="M140 281Q115 301 104.5 328Q94 355 99 385Q110 443 156.5 481Q203 519 271 519Q342 519 379 479.5Q416 440 406 385Q400 351 379 320.5Q358 290 321 261Q355 238 369 207Q383 176 376 138Q364 71 313.5 30Q263 -11 187 -11Q109 -11 70 31.5Q31 74 42 139Q51 186 74.5 220Q98 254 140 281ZM272 281Q302 305 319 331Q336 357 341 385Q348 421 327 442Q306 463 266 463Q226 463 198 442Q170 421 164 385Q158 346 181.5 322.5Q205 299 272 281ZM193 48Q240 48 271 71.5Q302 95 310 138Q317 179 295 204Q273 229 189 255Q151 229 133 202.5Q115 176 108 138Q101 95 123.5 71.5Q146 48 193 48Z" glyph-name="eight.tosf" horiz-adv-x="442" unicode="" /><glyph d="M55 245 58 263Q71 337 119.5 380.5Q168 424 242 424Q326 424 361.5 372.5Q397 321 380 225L357 93Q339 -6 289.5 -56Q240 -106 159 -106Q127 -106 95.5 -99.5Q64 -93 38 -82L61 -25Q82 -33 111.5 -39.5Q141 -46 161 -46Q216 -46 247 -13Q278 20 291 93L314 225Q327 298 308 331.5Q289 365 234 365Q190 365 161.5 338.5Q133 312 124 263L121 245Q113 199 132.5 173Q152 147 193 147Q207 147 220 149.5Q233 152 251 158L269 111Q249 101 227 96Q205 91 182 91Q114 91 78.5 135Q43 179 55 245Z" glyph-name="nine.tosf" horiz-adv-x="442" unicode="" /><glyph d="M108 491 108 505Q111 550 142 577.5Q173 605 224 605Q276 605 304.5 577Q333 549 330 505V491Q327 446 296.5 418Q266 390 214 390Q162 390 133.5 418Q105 446 108 491ZM276 491 276 505Q278 530 264 544Q250 558 222 558Q194 558 179 544.5Q164 531 162 505V491Q160 465 174 451Q188 437 216 437Q244 437 259 451Q274 465 276 491Z" glyph-name="degree" horiz-adv-x="336" unicode="°" /><glyph d="M217 -22 180 10L587 531L624 499ZM68 308 82 387Q93 451 125.5 482Q158 513 213 513Q268 513 291.5 480.5Q315 448 304 387L290 308Q279 244 246.5 213Q214 182 159 182Q104 182 80.5 214.5Q57 247 68 308ZM236 308 250 387Q257 429 247 448Q237 467 207 467Q177 467 160 448Q143 429 136 387L122 308Q115 266 125 247.5Q135 229 165 229Q195 229 212 247.5Q229 266 236 308ZM500 121 514 200Q525 264 557.5 295Q590 326 645 326Q700 326 723.5 293.5Q747 261 736 200L722 121Q711 57 678.5 26Q646 -5 591 -5Q536 -5 512.5 27.5Q489 60 500 121ZM668 121 682 200Q689 242 679 261Q669 280 639 280Q609 280 592 261Q575 242 568 200L554 121Q547 79 557 60.5Q567 42 597 42Q627 42 644 60.5Q661 79 668 121Z" glyph-name="percent" horiz-adv-x="787" unicode="%" /><glyph d="M217 -22 180 10L587 531L624 499ZM68 308 82 387Q93 451 125.5 482Q158 513 213 513Q268 513 291.5 480.5Q315 448 304 387L290 308Q279 244 246.5 213Q214 182 159 182Q104 182 80.5 214.5Q57 247 68 308ZM236 308 250 387Q257 429 247 448Q237 467 207 467Q177 467 160 448Q143 429 136 387L122 308Q115 266 125 247.5Q135 229 165 229Q195 229 212 247.5Q229 266 236 308ZM500 121 514 200Q525 264 557.5 295Q590 326 645 326Q700 326 723.5 293.5Q747 261 736 200L722 121Q711 57 678.5 26Q646 -5 591 -5Q536 -5 512.5 27.5Q489 60 500 121ZM789 121 803 200Q814 264 846.5 295Q879 326 934 326Q989 326 1012.5 293.5Q1036 261 1025 200L1011 121Q1000 57 967.5 26Q935 -5 880 -5Q825 -5 801.5 27.5Q778 60 789 121ZM668 121 682 200Q689 242 679 261Q669 280 639 280Q609 280 592 261Q575 242 568 200L554 121Q547 79 557 60.5Q567 42 597 42Q627 42 644 60.5Q661 79 668 121ZM957 121 971 200Q978 242 968 261Q958 280 928 280Q898 280 881 261Q864 242 857 200L843 121Q836 79 846 60.5Q856 42 886 42Q916 42 933 60.5Q950 79 957 121Z" glyph-name="perthousand" horiz-adv-x="1076" unicode="‰" /><glyph d="M-73 -11 -115 22L292 543L334 510Z" glyph-name="fraction" horiz-adv-x="198" unicode="⁄" /><glyph d="M-73 -11 -115 22L292 543L334 510Z" glyph-name="uni2215" horiz-adv-x="198" unicode="∕" /><glyph d="M68 308 82 387Q93 451 125.5 482Q158 513 213 513Q268 513 291.5 480.5Q315 448 304 387L290 308Q279 244 246.5 213Q214 182 159 182Q104 182 80.5 214.5Q57 247 68 308ZM236 308 250 387Q257 429 247 448Q237 467 207 467Q177 467 160 448Q143 429 136 387L122 308Q115 266 125 247.5Q135 229 165 229Q195 229 212 247.5Q229 266 236 308Z" glyph-name="zero.numerator" horiz-adv-x="322" unicode="" /><glyph d="M53 450 158 508H208L152 187H98L143 445L75 407Z" glyph-name="one.numerator" horiz-adv-x="220" unicode="" /><glyph d="M94 447 77 491Q106 503 129 508Q152 513 176 513Q219 513 243 488.5Q267 464 263 426Q260 401 244.5 379Q229 357 180 315Q123 268 112 256.5Q101 245 95 234H228L219 187H23L31 229Q51 263 74.5 288Q98 313 141 347Q188 384 197.5 397Q207 410 209 426Q211 444 200 455Q189 466 168 466Q152 466 135.5 462Q119 458 94 447Z" glyph-name="two.numerator" horiz-adv-x="270" unicode="" /><glyph d="M96 447 79 491Q110 504 131.5 508.5Q153 513 175 513Q219 513 244 487.5Q269 462 262 424Q258 403 244 385.5Q230 368 208 358Q231 347 242.5 325.5Q254 304 250 278Q242 233 208 207.5Q174 182 121 182Q102 182 79.5 187Q57 192 34 202L53 246Q72 238 91.5 233.5Q111 229 128 229Q155 229 173.5 243Q192 257 196 280Q201 308 184 321Q167 334 125 333V375Q164 379 185.5 392.5Q207 406 210 429Q213 446 201.5 456Q190 466 168 466Q154 466 139 462.5Q124 459 96 447Z" glyph-name="three.numerator" horiz-adv-x="284" unicode="" /><glyph d="M40 292 214 508H280L243 296H287L279 249H235L224 187H172L183 249H33ZM100 296 191 296L216 441Z" glyph-name="four.numerator" horiz-adv-x="297" unicode="" /><glyph d="M74 375 108 508H273L265 462H150L131 386Q138 388 145.5 389Q153 390 162 390Q208 390 231.5 361Q255 332 247 286Q240 240 205.5 211Q171 182 120 182Q99 182 76 187Q53 192 30 202L49 246Q67 238 87 233.5Q107 229 124 229Q152 229 170.5 245Q189 261 195 291Q199 317 187 331.5Q175 346 148 346Q132 346 118 343.5Q104 341 92 336Z" glyph-name="five.numerator" horiz-adv-x="271" unicode="" /><glyph d="M65 295 82 390Q92 449 127.5 482.5Q163 516 216 516Q234 516 252.5 512Q271 508 286 501L265 456Q248 464 236.5 466.5Q225 469 214 469Q184 469 163.5 448Q143 427 136 388L119 293Q114 261 125 245Q136 229 164 229Q189 229 204 244Q219 259 223 287L225 298Q230 324 221.5 337.5Q213 351 192 351Q182 351 173 350Q164 349 159 347L148 386Q158 391 170.5 393.5Q183 396 195 396Q239 396 262.5 367Q286 338 279 296L277 285Q269 239 237.5 210.5Q206 182 159 182Q106 182 81 213Q56 244 65 295Z" glyph-name="six.numerator" horiz-adv-x="303" unicode="" /><glyph d="M55 462 63 508H268L261 466Q215 416 178 352Q141 288 101 187H42Q77 277 113 343Q149 409 191 462Z" glyph-name="seven.numerator" horiz-adv-x="238" unicode="" /><glyph d="M116 364Q102 376 96.5 392Q91 408 93 426Q98 462 129 487.5Q160 513 204 513Q250 513 275 486Q300 459 293 424Q289 404 277.5 386Q266 368 245 350Q263 337 271 317Q279 297 275 275Q268 234 235 208Q202 182 153 182Q104 182 78 210.5Q52 239 58 279Q62 306 76 326.5Q90 347 116 364ZM205 367Q220 380 229 394.5Q238 409 241 426Q245 446 234 457Q223 468 201 468Q179 468 164 456.5Q149 445 145 424Q142 403 155.5 390Q169 377 205 367ZM157 229Q183 229 200.5 241.5Q218 254 222 277Q226 299 214 313.5Q202 328 157 344Q134 328 124.5 313.5Q115 299 111 277Q107 255 119.5 242Q132 229 157 229Z" glyph-name="eight.numerator" horiz-adv-x="308" unicode="" /><glyph d="M74 399 76 410Q84 456 115 484.5Q146 513 193 513Q246 513 271.5 481.5Q297 450 287 401L270 304Q259 243 227 212.5Q195 182 143 182Q122 182 101 186Q80 190 62 198L81 242Q93 237 111.5 233Q130 229 144 229Q176 229 193.5 247.5Q211 266 217 307L233 404Q238 435 226.5 450.5Q215 466 188 466Q164 466 149 451Q134 436 129 407L127 396Q122 370 131.5 357Q141 344 163 344Q170 344 178.5 345Q187 346 193 348L205 309Q192 304 180 301.5Q168 299 157 299Q113 299 89.5 327.5Q66 356 74 399Z" glyph-name="nine.numerator" horiz-adv-x="303" unicode="" /><glyph d="M36 121 50 200Q61 264 93.5 295Q126 326 181 326Q236 326 259.5 293.5Q283 261 272 200L258 121Q247 57 214.5 26Q182 -5 127 -5Q72 -5 48.5 27.5Q25 60 36 121ZM204 121 218 200Q225 242 215 261Q205 280 175 280Q145 280 128 261Q111 242 104 200L90 121Q83 79 93 60.5Q103 42 133 42Q163 42 180 60.5Q197 79 204 121Z" glyph-name="zero.denominator" horiz-adv-x="322" unicode="" /><glyph d="M21 263 126 321H176L120 0H66L111 258L43 220Z" glyph-name="one.denominator" horiz-adv-x="220" unicode="" /><glyph d="M62 260 45 304Q74 316 97 321Q120 326 144 326Q187 326 211 301.5Q235 277 231 239Q228 214 212.5 192Q197 170 148 128Q91 81 80 69.5Q69 58 63 47H196L187 0H-9L-1 42Q19 76 42.5 101Q66 126 109 160Q156 197 165.5 210Q175 223 177 239Q179 257 168 268Q157 279 136 279Q120 279 103.5 275Q87 271 62 260Z" glyph-name="two.denominator" horiz-adv-x="270" unicode="" /><glyph d="M64 260 47 304Q78 317 99.5 321.5Q121 326 143 326Q187 326 212 300.5Q237 275 230 237Q226 216 212 198.5Q198 181 176 171Q199 160 210.5 138.5Q222 117 218 91Q210 46 176 20.5Q142 -5 89 -5Q70 -5 47.5 0Q25 5 2 15L21 59Q40 51 59.5 46.5Q79 42 96 42Q123 42 141.5 56Q160 70 164 93Q169 121 152 134Q135 147 93 146V188Q132 192 153.5 205.5Q175 219 178 242Q181 259 169.5 269Q158 279 136 279Q122 279 107 275.5Q92 272 64 260Z" glyph-name="three.denominator" horiz-adv-x="284" unicode="" /><glyph d="M8 105 182 321H248L211 109H255L247 62H203L192 0H140L151 62H1ZM68 109 159 109L184 254Z" glyph-name="four.denominator" horiz-adv-x="297" unicode="" /><glyph d="M42 188 76 321H241L233 275H118L99 199Q106 201 113.5 202Q121 203 130 203Q176 203 199.5 174Q223 145 215 99Q208 53 173.5 24Q139 -5 88 -5Q67 -5 44 0Q21 5 -2 15L17 59Q35 51 55 46.5Q75 42 92 42Q120 42 138.5 58Q157 74 163 104Q167 130 155 144.5Q143 159 116 159Q100 159 86 156.5Q72 154 60 149Z" glyph-name="five.denominator" horiz-adv-x="271" unicode="" /><glyph d="M33 108 50 203Q60 262 95.5 295.5Q131 329 184 329Q202 329 220.5 325Q239 321 254 314L233 269Q216 277 204.5 279.5Q193 282 182 282Q152 282 131.5 261Q111 240 104 201L87 106Q82 74 93 58Q104 42 132 42Q157 42 172 57Q187 72 191 100L193 111Q198 137 189.5 150.5Q181 164 160 164Q150 164 141 163Q132 162 127 160L116 199Q126 204 138.5 206.5Q151 209 163 209Q207 209 230.5 180Q254 151 247 109L245 98Q237 52 205.5 23.5Q174 -5 127 -5Q74 -5 49 26Q24 57 33 108Z" glyph-name="six.denominator" horiz-adv-x="303" unicode="" /><glyph d="M23 275 31 321H236L229 279Q183 229 146 165Q109 101 69 0H10Q45 90 81 156Q117 222 159 275Z" glyph-name="seven.denominator" horiz-adv-x="238" unicode="" /><glyph d="M84 177Q70 189 64.5 205Q59 221 61 239Q66 275 97 300.5Q128 326 172 326Q218 326 243 299Q268 272 261 237Q257 217 245.5 199Q234 181 213 163Q231 150 239 130Q247 110 243 88Q236 47 203 21Q170 -5 121 -5Q72 -5 46 23.5Q20 52 26 92Q30 119 44 139.5Q58 160 84 177ZM173 180Q188 193 197 207.5Q206 222 209 239Q213 259 202 270Q191 281 169 281Q147 281 132 269.5Q117 258 113 237Q110 216 123.5 203Q137 190 173 180ZM125 42Q151 42 168.5 54.5Q186 67 190 90Q194 112 182 126.5Q170 141 125 157Q102 141 92.5 126.5Q83 112 79 90Q75 68 87.5 55Q100 42 125 42Z" glyph-name="eight.denominator" horiz-adv-x="308" unicode="" /><glyph d="M42 212 44 223Q52 269 83 297.5Q114 326 161 326Q214 326 239.5 294.5Q265 263 255 214L238 117Q227 56 195 25.5Q163 -5 111 -5Q90 -5 69 -1Q48 3 30 11L49 55Q61 50 79.5 46Q98 42 112 42Q144 42 161.5 60.5Q179 79 185 120L201 217Q206 248 194.5 263.5Q183 279 156 279Q132 279 117 264Q102 249 97 220L95 209Q90 183 99.5 170Q109 157 131 157Q138 157 146.5 158Q155 159 161 161L173 122Q160 117 148 114.5Q136 112 125 112Q81 112 57.5 140.5Q34 169 42 212Z" glyph-name="nine.denominator" horiz-adv-x="303" unicode="" /><glyph d="M85 407 99 486Q110 550 142.5 581Q175 612 230 612Q285 612 308.5 579.5Q332 547 321 486L307 407Q296 343 263.5 312Q231 281 176 281Q121 281 97.5 313.5Q74 346 85 407ZM253 407 267 486Q274 528 264 547Q254 566 224 566Q194 566 177 547Q160 528 153 486L139 407Q132 365 142 346.5Q152 328 182 328Q212 328 229 346.5Q246 365 253 407Z" glyph-name="zerosuperior" horiz-adv-x="322" unicode="⁰" /><glyph d="M70 549 175 607H225L169 286H115L160 544L92 506Z" glyph-name="onesuperior" horiz-adv-x="220" unicode="¹" /><glyph d="M111 546 94 590Q123 602 146 607Q169 612 193 612Q236 612 260 587.5Q284 563 280 525Q277 500 261.5 478Q246 456 197 414Q140 367 129 355.5Q118 344 112 333H245L236 286H40L48 328Q68 362 91.5 387Q115 412 158 446Q205 483 214.5 496Q224 509 226 525Q228 543 217 554Q206 565 185 565Q169 565 152.5 561Q136 557 111 546Z" glyph-name="twosuperior" horiz-adv-x="270" unicode="²" /><glyph d="M113 546 96 590Q127 603 148.5 607.5Q170 612 192 612Q236 612 261 586.5Q286 561 279 523Q275 502 261 484.5Q247 467 225 457Q248 446 259.5 424.5Q271 403 267 377Q259 332 225 306.5Q191 281 138 281Q119 281 96.5 286Q74 291 51 301L70 345Q89 337 108.5 332.5Q128 328 145 328Q172 328 190.5 342Q209 356 213 379Q218 407 201 420Q184 433 142 432V474Q181 478 202.5 491.5Q224 505 227 528Q230 545 218.5 555Q207 565 185 565Q171 565 156 561.5Q141 558 113 546Z" glyph-name="threesuperior" horiz-adv-x="284" unicode="³" /><glyph d="M57 391 231 607H297L260 395H304L296 348H252L241 286H189L200 348H50ZM117 395 208 395L233 540Z" glyph-name="foursuperior" horiz-adv-x="297" unicode="⁴" /><glyph d="M91 474 125 607H290L282 561H167L148 485Q155 487 162.5 488Q170 489 179 489Q225 489 248.5 460Q272 431 264 385Q257 339 222.5 310Q188 281 137 281Q116 281 93 286Q70 291 47 301L66 345Q84 337 104 332.5Q124 328 141 328Q169 328 187.5 344Q206 360 212 390Q216 416 204 430.5Q192 445 165 445Q149 445 135 442.5Q121 440 109 435Z" glyph-name="fivesuperior" horiz-adv-x="271" unicode="⁵" /><glyph d="M82 394 99 489Q109 548 144.5 581.5Q180 615 233 615Q251 615 269.5 611Q288 607 303 600L282 555Q265 563 253.5 565.5Q242 568 231 568Q201 568 180.5 547Q160 526 153 487L136 392Q131 360 142 344Q153 328 181 328Q206 328 221 343Q236 358 240 386L242 397Q247 423 238.5 436.5Q230 450 209 450Q199 450 190 449Q181 448 176 446L165 485Q175 490 187.5 492.5Q200 495 212 495Q256 495 279.5 466Q303 437 296 395L294 384Q286 338 254.5 309.5Q223 281 176 281Q123 281 98 312Q73 343 82 394Z" glyph-name="sixsuperior" horiz-adv-x="303" unicode="⁶" /><glyph d="M72 561 80 607H285L278 565Q232 515 195 451Q158 387 118 286H59Q94 376 130 442Q166 508 208 561Z" glyph-name="sevensuperior" horiz-adv-x="238" unicode="⁷" /><glyph d="M133 463Q119 475 113.5 491Q108 507 110 525Q115 561 146 586.5Q177 612 221 612Q267 612 292 585Q317 558 310 523Q306 503 294.5 485Q283 467 262 449Q280 436 288 416Q296 396 292 374Q285 333 252 307Q219 281 170 281Q121 281 95 309.5Q69 338 75 378Q79 405 93 425.5Q107 446 133 463ZM222 466Q237 479 246 493.5Q255 508 258 525Q262 545 251 556Q240 567 218 567Q196 567 181 555.5Q166 544 162 523Q159 502 172.5 489Q186 476 222 466ZM174 328Q200 328 217.5 340.5Q235 353 239 376Q243 398 231 412.5Q219 427 174 443Q151 427 141.5 412.5Q132 398 128 376Q124 354 136.5 341Q149 328 174 328Z" glyph-name="eightsuperior" horiz-adv-x="308" unicode="⁸" /><glyph d="M91 498 93 509Q101 555 132 583.5Q163 612 210 612Q263 612 288.5 580.5Q314 549 304 500L287 403Q276 342 244 311.5Q212 281 160 281Q139 281 118 285Q97 289 79 297L98 341Q110 336 128.5 332Q147 328 161 328Q193 328 210.5 346.5Q228 365 234 406L250 503Q255 534 243.5 549.5Q232 565 205 565Q181 565 166 550Q151 535 146 506L144 495Q139 469 148.5 456Q158 443 180 443Q187 443 195.5 444Q204 445 210 447L222 408Q209 403 197 400.5Q185 398 174 398Q130 398 106.5 426.5Q83 455 91 498Z" glyph-name="ninesuperior" horiz-adv-x="303" unicode="⁹" /><glyph d="M18 22 32 101Q43 165 75.5 196Q108 227 163 227Q218 227 241.5 194.5Q265 162 254 101L240 22Q229 -42 196.5 -73Q164 -104 109 -104Q54 -104 30.5 -71.5Q7 -39 18 22ZM186 22 200 101Q207 143 197 162Q187 181 157 181Q127 181 110 162Q93 143 86 101L72 22Q65 -20 75 -38.5Q85 -57 115 -57Q145 -57 162 -38.5Q179 -20 186 22Z" glyph-name="zeroinferior" horiz-adv-x="322" unicode="₀" /><glyph d="M3 164 108 222H158L102 -99H48L93 159L25 121Z" glyph-name="oneinferior" horiz-adv-x="220" unicode="₁" /><glyph d="M44 161 27 205Q56 217 79 222Q102 227 126 227Q169 227 193 202.5Q217 178 213 140Q210 115 194.5 93Q179 71 130 29Q73 -18 62 -29.5Q51 -41 45 -52H178L169 -99H-27L-19 -57Q1 -23 24.5 2Q48 27 91 61Q138 98 147.5 111Q157 124 159 140Q161 158 150 169Q139 180 118 180Q102 180 85.5 176Q69 172 44 161Z" glyph-name="twoinferior" horiz-adv-x="270" unicode="₂" /><glyph d="M46 161 29 205Q60 218 81.5 222.5Q103 227 125 227Q169 227 194 201.5Q219 176 212 138Q208 117 194 99.5Q180 82 158 72Q181 61 192.5 39.5Q204 18 200 -8Q192 -53 158 -78.5Q124 -104 71 -104Q52 -104 29.5 -99Q7 -94 -16 -84L3 -40Q22 -48 41.5 -52.5Q61 -57 78 -57Q105 -57 123.5 -43Q142 -29 146 -6Q151 22 134 35Q117 48 75 47V89Q114 93 135.5 106.5Q157 120 160 143Q163 160 151.5 170Q140 180 118 180Q104 180 89 176.5Q74 173 46 161Z" glyph-name="threeinferior" horiz-adv-x="284" unicode="₃" /><glyph d="M-10 6 164 222H230L193 10H237L229 -37H185L174 -99H122L133 -37H-17ZM50 10 141 10L166 155Z" glyph-name="fourinferior" horiz-adv-x="297" unicode="₄" /><glyph d="M24 89 58 222H223L215 176H100L81 100Q88 102 95.5 103Q103 104 112 104Q158 104 181.5 75Q205 46 197 0Q190 -46 155.5 -75Q121 -104 70 -104Q49 -104 26 -99Q3 -94 -20 -84L-1 -40Q17 -48 37 -52.5Q57 -57 74 -57Q102 -57 120.5 -41Q139 -25 145 5Q149 31 137 45.5Q125 60 98 60Q82 60 68 57.5Q54 55 42 50Z" glyph-name="fiveinferior" horiz-adv-x="271" unicode="₅" /><glyph d="M15 9 32 104Q42 163 77.5 196.5Q113 230 166 230Q184 230 202.5 226Q221 222 236 215L215 170Q198 178 186.5 180.5Q175 183 164 183Q134 183 113.5 162Q93 141 86 102L69 7Q64 -25 75 -41Q86 -57 114 -57Q139 -57 154 -42Q169 -27 173 1L175 12Q180 38 171.5 51.5Q163 65 142 65Q132 65 123 64Q114 63 109 61L98 100Q108 105 120.5 107.5Q133 110 145 110Q189 110 212.5 81Q236 52 229 10L227 -1Q219 -47 187.5 -75.5Q156 -104 109 -104Q56 -104 31 -73Q6 -42 15 9Z" glyph-name="sixinferior" horiz-adv-x="303" unicode="₆" /><glyph d="M5 176 13 222H218L211 180Q165 130 128 66Q91 2 51 -99H-8Q27 -9 63 57Q99 123 141 176Z" glyph-name="seveninferior" horiz-adv-x="238" unicode="₇" /><glyph d="M66 78Q52 90 46.5 106Q41 122 43 140Q48 176 79 201.5Q110 227 154 227Q200 227 225 200Q250 173 243 138Q239 118 227.5 100Q216 82 195 64Q213 51 221 31Q229 11 225 -11Q218 -52 185 -78Q152 -104 103 -104Q54 -104 28 -75.5Q2 -47 8 -7Q12 20 26 40.5Q40 61 66 78ZM155 81Q170 94 179 108.5Q188 123 191 140Q195 160 184 171Q173 182 151 182Q129 182 114 170.5Q99 159 95 138Q92 117 105.5 104Q119 91 155 81ZM107 -57Q133 -57 150.5 -44.5Q168 -32 172 -9Q176 13 164 27.5Q152 42 107 58Q84 42 74.5 27.5Q65 13 61 -9Q57 -31 69.5 -44Q82 -57 107 -57Z" glyph-name="eightinferior" horiz-adv-x="308" unicode="₈" /><glyph d="M24 113 26 124Q34 170 65 198.5Q96 227 143 227Q196 227 221.5 195.5Q247 164 237 115L220 18Q209 -43 177 -73.5Q145 -104 93 -104Q72 -104 51 -100Q30 -96 12 -88L31 -44Q43 -49 61.5 -53Q80 -57 94 -57Q126 -57 143.5 -38.5Q161 -20 167 21L183 118Q188 149 176.5 164.5Q165 180 138 180Q114 180 99 165Q84 150 79 121L77 110Q72 84 81.5 71Q91 58 113 58Q120 58 128.5 59Q137 60 143 62L155 23Q142 18 130 15.5Q118 13 107 13Q63 13 39.5 41.5Q16 70 24 113Z" glyph-name="nineinferior" horiz-adv-x="303" unicode="₉" /><glyph d="M53 450 158 508H208L152 187H98L143 445L75 407ZM137 -11 95 22L502 543L544 510ZM470 260 453 304Q482 316 505 321Q528 326 552 326Q595 326 619 301.5Q643 277 639 239Q636 214 620.5 192Q605 170 556 128Q499 81 488 69.5Q477 58 471 47H604L595 0H399L407 42Q427 76 450.5 101Q474 126 517 160Q564 197 573.5 210Q583 223 585 239Q587 257 576 268Q565 279 544 279Q528 279 511.5 275Q495 271 470 260Z" glyph-name="onehalf" horiz-adv-x="678" unicode="½" /><glyph d="M53 450 158 508H208L152 187H98L143 445L75 407ZM137 -11 95 22L502 543L544 510ZM472 260 455 304Q486 317 507.5 321.5Q529 326 551 326Q595 326 620 300.5Q645 275 638 237Q634 216 620 198.5Q606 181 584 171Q607 160 618.5 138.5Q630 117 626 91Q618 46 584 20.5Q550 -5 497 -5Q478 -5 455.5 0Q433 5 410 15L429 59Q448 51 467.5 46.5Q487 42 504 42Q531 42 549.5 56Q568 70 572 93Q577 121 560 134Q543 147 501 146V188Q540 192 561.5 205.5Q583 219 586 242Q589 259 577.5 269Q566 279 544 279Q530 279 515 275.5Q500 272 472 260Z" glyph-name="onethird" horiz-adv-x="692" unicode="⅓" /><glyph d="M53 450 158 508H208L152 187H98L143 445L75 407ZM137 -11 95 22L502 543L544 510ZM356 105 530 321H596L559 109H603L595 62H551L540 0H488L499 62H349ZM416 109 507 109L532 254Z" glyph-name="onequarter" horiz-adv-x="655" unicode="¼" /><glyph d="M53 450 158 508H208L152 187H98L143 445L75 407ZM137 -9 95 24L502 545L544 512ZM450 188 484 321H649L641 275H526L507 199Q514 201 521.5 202Q529 203 538 203Q584 203 607.5 174Q631 145 623 99Q616 53 581.5 24Q547 -5 496 -5Q475 -5 452 0Q429 5 406 15L425 59Q443 51 463 46.5Q483 42 500 42Q528 42 546.5 58Q565 74 571 104Q575 130 563 144.5Q551 159 524 159Q508 159 494 156.5Q480 154 468 149Z" glyph-name="onefifth" horiz-adv-x="679" unicode="" /><glyph d="M53 450 158 508H208L152 187H98L143 445L75 407ZM137 -11 95 22L502 543L544 510ZM411 108 428 203Q438 262 473.5 295.5Q509 329 562 329Q580 329 598.5 325Q617 321 632 314L611 269Q594 277 582.5 279.5Q571 282 560 282Q530 282 509.5 261Q489 240 482 201L465 106Q460 74 471 58Q482 42 510 42Q535 42 550 57Q565 72 569 100L571 111Q576 137 567.5 150.5Q559 164 538 164Q528 164 519 163Q510 162 505 160L494 199Q504 204 516.5 206.5Q529 209 541 209Q585 209 608.5 180Q632 151 625 109L623 98Q615 52 583.5 23.5Q552 -5 505 -5Q452 -5 427 26Q402 57 411 108Z" glyph-name="onesixth" horiz-adv-x="681" unicode="" /><glyph d="M53 450 158 508H208L152 187H98L143 445L75 407ZM137 -11 95 22L502 543L544 510ZM441 275 449 321H654L647 279Q601 229 564 165Q527 101 487 0H428Q463 90 499 156Q535 222 577 275Z" glyph-name="oneseventh" horiz-adv-x="656" unicode="" /><glyph d="M53 450 158 508H208L152 187H98L143 445L75 407ZM137 -11 95 22L502 543L544 510ZM472 177Q458 189 452.5 205Q447 221 449 239Q454 275 485 300.5Q516 326 560 326Q606 326 631 299Q656 272 649 237Q645 217 633.5 199Q622 181 601 163Q619 150 627 130Q635 110 631 88Q624 47 591 21Q558 -5 509 -5Q460 -5 434 23.5Q408 52 414 92Q418 119 432 139.5Q446 160 472 177ZM561 180Q576 193 585 207.5Q594 222 597 239Q601 259 590 270Q579 281 557 281Q535 281 520 269.5Q505 258 501 237Q498 216 511.5 203Q525 190 561 180ZM513 42Q539 42 556.5 54.5Q574 67 578 90Q582 112 570 126.5Q558 141 513 157Q490 141 480.5 126.5Q471 112 467 90Q463 68 475.5 55Q488 42 513 42Z" glyph-name="oneeighth" horiz-adv-x="696" unicode="⅛" /><glyph d="M53 450 158 508H208L152 187H98L143 445L75 407ZM138 -11 96 22L503 543L545 510ZM441 212 443 223Q451 269 482 297.5Q513 326 560 326Q613 326 638.5 294.5Q664 263 654 214L637 117Q626 56 594 25.5Q562 -5 510 -5Q489 -5 468 -1Q447 3 429 11L448 55Q460 50 478.5 46Q497 42 511 42Q543 42 560.5 60.5Q578 79 584 120L600 217Q605 248 593.5 263.5Q582 279 555 279Q531 279 516 264Q501 249 496 220L494 209Q489 183 498.5 170Q508 157 530 157Q537 157 545.5 158Q554 159 560 161L572 122Q559 117 547 114.5Q535 112 524 112Q480 112 456.5 140.5Q433 169 441 212Z" glyph-name="oneninth" horiz-adv-x="692" unicode="" /><glyph d="M94 447 77 491Q106 503 129 508Q152 513 176 513Q219 513 243 488.5Q267 464 263 426Q260 401 244.5 379Q229 357 180 315Q123 268 112 256.5Q101 245 95 234H228L219 187H23L31 229Q51 263 74.5 288Q98 313 141 347Q188 384 197.5 397Q207 410 209 426Q211 444 200 455Q189 466 168 466Q152 466 135.5 462Q119 458 94 447ZM197 -11 155 22L562 543L604 510ZM532 260 515 304Q546 317 567.5 321.5Q589 326 611 326Q655 326 680 300.5Q705 275 698 237Q694 216 680 198.5Q666 181 644 171Q667 160 678.5 138.5Q690 117 686 91Q678 46 644 20.5Q610 -5 557 -5Q538 -5 515.5 0Q493 5 470 15L489 59Q508 51 527.5 46.5Q547 42 564 42Q591 42 609.5 56Q628 70 632 93Q637 121 620 134Q603 147 561 146V188Q600 192 621.5 205.5Q643 219 646 242Q649 259 637.5 269Q626 279 604 279Q590 279 575 275.5Q560 272 532 260Z" glyph-name="twothirds" horiz-adv-x="752" unicode="⅔" /><glyph d="M94 447 77 491Q106 503 129 508Q152 513 176 513Q219 513 243 488.5Q267 464 263 426Q260 401 244.5 379Q229 357 180 315Q123 268 112 256.5Q101 245 95 234H228L219 187H23L31 229Q51 263 74.5 288Q98 313 141 347Q188 384 197.5 397Q207 410 209 426Q211 444 200 455Q189 466 168 466Q152 466 135.5 462Q119 458 94 447ZM197 -11 155 22L562 543L604 510ZM490 188 524 321H689L681 275H566L547 199Q554 201 561.5 202Q569 203 578 203Q624 203 647.5 174Q671 145 663 99Q656 53 621.5 24Q587 -5 536 -5Q515 -5 492 0Q469 5 446 15L465 59Q483 51 503 46.5Q523 42 540 42Q568 42 586.5 58Q605 74 611 104Q615 130 603 144.5Q591 159 564 159Q548 159 534 156.5Q520 154 508 149Z" glyph-name="twofifths" horiz-adv-x="719" unicode="" /><glyph d="M94 447 77 491Q106 503 129 508Q152 513 176 513Q219 513 243 488.5Q267 464 263 426Q260 401 244.5 379Q229 357 180 315Q123 268 112 256.5Q101 245 95 234H228L219 187H23L31 229Q51 263 74.5 288Q98 313 141 347Q188 384 197.5 397Q207 410 209 426Q211 444 200 455Q189 466 168 466Q152 466 135.5 462Q119 458 94 447ZM192 -11 150 22L557 543L599 510ZM501 275 509 321H714L707 279Q661 229 624 165Q587 101 547 0H488Q523 90 559 156Q595 222 637 275Z" glyph-name="twosevenths" horiz-adv-x="716" unicode="" /><glyph d="M94 447 77 491Q106 503 129 508Q152 513 176 513Q219 513 243 488.5Q267 464 263 426Q260 401 244.5 379Q229 357 180 315Q123 268 112 256.5Q101 245 95 234H228L219 187H23L31 229Q51 263 74.5 288Q98 313 141 347Q188 384 197.5 397Q207 410 209 426Q211 444 200 455Q189 466 168 466Q152 466 135.5 462Q119 458 94 447ZM197 -11 155 22L562 543L604 510ZM500 212 502 223Q510 269 541 297.5Q572 326 619 326Q672 326 697.5 294.5Q723 263 713 214L696 117Q685 56 653 25.5Q621 -5 569 -5Q548 -5 527 -1Q506 3 488 11L507 55Q519 50 537.5 46Q556 42 570 42Q602 42 619.5 60.5Q637 79 643 120L659 217Q664 248 652.5 263.5Q641 279 614 279Q590 279 575 264Q560 249 555 220L553 209Q548 183 557.5 170Q567 157 589 157Q596 157 604.5 158Q613 159 619 161L631 122Q618 117 606 114.5Q594 112 583 112Q539 112 515.5 140.5Q492 169 500 212Z" glyph-name="twoninths" horiz-adv-x="751" unicode="" /><glyph d="M96 447 79 491Q110 504 131.5 508.5Q153 513 175 513Q219 513 244 487.5Q269 462 262 424Q258 403 244 385.5Q230 368 208 358Q231 347 242.5 325.5Q254 304 250 278Q242 233 208 207.5Q174 182 121 182Q102 182 79.5 187Q57 192 34 202L53 246Q72 238 91.5 233.5Q111 229 128 229Q155 229 173.5 243Q192 257 196 280Q201 308 184 321Q167 334 125 333V375Q164 379 185.5 392.5Q207 406 210 429Q213 446 201.5 456Q190 466 168 466Q154 466 139 462.5Q124 459 96 447ZM201 -11 159 22L566 543L608 510ZM420 105 594 321H660L623 109H667L659 62H615L604 0H552L563 62H413ZM480 109 571 109L596 254Z" glyph-name="threequarters" horiz-adv-x="719" unicode="¾" /><glyph d="M96 447 79 491Q110 504 131.5 508.5Q153 513 175 513Q219 513 244 487.5Q269 462 262 424Q258 403 244 385.5Q230 368 208 358Q231 347 242.5 325.5Q254 304 250 278Q242 233 208 207.5Q174 182 121 182Q102 182 79.5 187Q57 192 34 202L53 246Q72 238 91.5 233.5Q111 229 128 229Q155 229 173.5 243Q192 257 196 280Q201 308 184 321Q167 334 125 333V375Q164 379 185.5 392.5Q207 406 210 429Q213 446 201.5 456Q190 466 168 466Q154 466 139 462.5Q124 459 96 447ZM201 -11 159 22L566 543L608 510ZM494 188 528 321H693L685 275H570L551 199Q558 201 565.5 202Q573 203 582 203Q628 203 651.5 174Q675 145 667 99Q660 53 625.5 24Q591 -5 540 -5Q519 -5 496 0Q473 5 450 15L469 59Q487 51 507 46.5Q527 42 544 42Q572 42 590.5 58Q609 74 615 104Q619 130 607 144.5Q595 159 568 159Q552 159 538 156.5Q524 154 512 149Z" glyph-name="threefifths" horiz-adv-x="723" unicode="" /><glyph d="M96 447 79 491Q110 504 131.5 508.5Q153 513 175 513Q219 513 244 487.5Q269 462 262 424Q258 403 244 385.5Q230 368 208 358Q231 347 242.5 325.5Q254 304 250 278Q242 233 208 207.5Q174 182 121 182Q102 182 79.5 187Q57 192 34 202L53 246Q72 238 91.5 233.5Q111 229 128 229Q155 229 173.5 243Q192 257 196 280Q201 308 184 321Q167 334 125 333V375Q164 379 185.5 392.5Q207 406 210 429Q213 446 201.5 456Q190 466 168 466Q154 466 139 462.5Q124 459 96 447ZM201 -11 159 22L566 543L608 510ZM505 275 513 321H718L711 279Q665 229 628 165Q591 101 551 0H492Q527 90 563 156Q599 222 641 275Z" glyph-name="threesevenths" horiz-adv-x="720" unicode="" /><glyph d="M96 447 79 491Q110 504 131.5 508.5Q153 513 175 513Q219 513 244 487.5Q269 462 262 424Q258 403 244 385.5Q230 368 208 358Q231 347 242.5 325.5Q254 304 250 278Q242 233 208 207.5Q174 182 121 182Q102 182 79.5 187Q57 192 34 202L53 246Q72 238 91.5 233.5Q111 229 128 229Q155 229 173.5 243Q192 257 196 280Q201 308 184 321Q167 334 125 333V375Q164 379 185.5 392.5Q207 406 210 429Q213 446 201.5 456Q190 466 168 466Q154 466 139 462.5Q124 459 96 447ZM201 -11 159 22L566 543L608 510ZM536 177Q522 189 516.5 205Q511 221 513 239Q518 275 549 300.5Q580 326 624 326Q670 326 695 299Q720 272 713 237Q709 217 697.5 199Q686 181 665 163Q683 150 691 130Q699 110 695 88Q688 47 655 21Q622 -5 573 -5Q524 -5 498 23.5Q472 52 478 92Q482 119 496 139.5Q510 160 536 177ZM625 180Q640 193 649 207.5Q658 222 661 239Q665 259 654 270Q643 281 621 281Q599 281 584 269.5Q569 258 565 237Q562 216 575.5 203Q589 190 625 180ZM577 42Q603 42 620.5 54.5Q638 67 642 90Q646 112 634 126.5Q622 141 577 157Q554 141 544.5 126.5Q535 112 531 90Q527 68 539.5 55Q552 42 577 42Z" glyph-name="threeeighths" horiz-adv-x="760" unicode="⅜" /><glyph d="M40 292 214 508H280L243 296H287L279 249H235L224 187H172L183 249H33ZM100 296 191 296L216 441ZM224 -11 182 22L589 543L631 510ZM537 188 571 321H736L728 275H613L594 199Q601 201 608.5 202Q616 203 625 203Q671 203 694.5 174Q718 145 710 99Q703 53 668.5 24Q634 -5 583 -5Q562 -5 539 0Q516 5 493 15L512 59Q530 51 550 46.5Q570 42 587 42Q615 42 633.5 58Q652 74 658 104Q662 130 650 144.5Q638 159 611 159Q595 159 581 156.5Q567 154 555 149Z" glyph-name="fourfifths" horiz-adv-x="766" unicode="" /><glyph d="M40 292 214 508H280L243 296H287L279 249H235L224 187H172L183 249H33ZM100 296 191 296L216 441ZM224 -11 182 22L589 543L631 510ZM528 275 536 321H741L734 279Q688 229 651 165Q614 101 574 0H515Q550 90 586 156Q622 222 664 275Z" glyph-name="foursevenths" horiz-adv-x="743" unicode="" /><glyph d="M40 292 214 508H280L243 296H287L279 249H235L224 187H172L183 249H33ZM100 296 191 296L216 441ZM224 -11 182 22L589 543L631 510ZM527 212 529 223Q537 269 568 297.5Q599 326 646 326Q699 326 724.5 294.5Q750 263 740 214L723 117Q712 56 680 25.5Q648 -5 596 -5Q575 -5 554 -1Q533 3 515 11L534 55Q546 50 564.5 46Q583 42 597 42Q629 42 646.5 60.5Q664 79 670 120L686 217Q691 248 679.5 263.5Q668 279 641 279Q617 279 602 264Q587 249 582 220L580 209Q575 183 584.5 170Q594 157 616 157Q623 157 631.5 158Q640 159 646 161L658 122Q645 117 633 114.5Q621 112 610 112Q566 112 542.5 140.5Q519 169 527 212Z" glyph-name="fourninths" horiz-adv-x="778" unicode="" /><glyph d="M74 375 108 508H273L265 462H150L131 386Q138 388 145.5 389Q153 390 162 390Q208 390 231.5 361Q255 332 247 286Q240 240 205.5 211Q171 182 120 182Q99 182 76 187Q53 192 30 202L49 246Q67 238 87 233.5Q107 229 124 229Q152 229 170.5 245Q189 261 195 291Q199 317 187 331.5Q175 346 148 346Q132 346 118 343.5Q104 341 92 336ZM198 -11 156 22L563 543L605 510ZM472 108 489 203Q499 262 534.5 295.5Q570 329 623 329Q641 329 659.5 325Q678 321 693 314L672 269Q655 277 643.5 279.5Q632 282 621 282Q591 282 570.5 261Q550 240 543 201L526 106Q521 74 532 58Q543 42 571 42Q596 42 611 57Q626 72 630 100L632 111Q637 137 628.5 150.5Q620 164 599 164Q589 164 580 163Q571 162 566 160L555 199Q565 204 577.5 206.5Q590 209 602 209Q646 209 669.5 180Q693 151 686 109L684 98Q676 52 644.5 23.5Q613 -5 566 -5Q513 -5 488 26Q463 57 472 108Z" glyph-name="fivesixths" horiz-adv-x="742" unicode="" /><glyph d="M74 375 108 508H273L265 462H150L131 386Q138 388 145.5 389Q153 390 162 390Q208 390 231.5 361Q255 332 247 286Q240 240 205.5 211Q171 182 120 182Q99 182 76 187Q53 192 30 202L49 246Q67 238 87 233.5Q107 229 124 229Q152 229 170.5 245Q189 261 195 291Q199 317 187 331.5Q175 346 148 346Q132 346 118 343.5Q104 341 92 336ZM178 -11 136 22L543 543L585 510ZM492 275 500 321H705L698 279Q652 229 615 165Q578 101 538 0H479Q514 90 550 156Q586 222 628 275Z" glyph-name="fivesevenths" horiz-adv-x="707" unicode="" /><glyph d="M74 375 108 508H273L265 462H150L131 386Q138 388 145.5 389Q153 390 162 390Q208 390 231.5 361Q255 332 247 286Q240 240 205.5 211Q171 182 120 182Q99 182 76 187Q53 192 30 202L49 246Q67 238 87 233.5Q107 229 124 229Q152 229 170.5 245Q189 261 195 291Q199 317 187 331.5Q175 346 148 346Q132 346 118 343.5Q104 341 92 336ZM198 -11 156 22L563 543L605 510ZM533 177Q519 189 513.5 205Q508 221 510 239Q515 275 546 300.5Q577 326 621 326Q667 326 692 299Q717 272 710 237Q706 217 694.5 199Q683 181 662 163Q680 150 688 130Q696 110 692 88Q685 47 652 21Q619 -5 570 -5Q521 -5 495 23.5Q469 52 475 92Q479 119 493 139.5Q507 160 533 177ZM622 180Q637 193 646 207.5Q655 222 658 239Q662 259 651 270Q640 281 618 281Q596 281 581 269.5Q566 258 562 237Q559 216 572.5 203Q586 190 622 180ZM574 42Q600 42 617.5 54.5Q635 67 639 90Q643 112 631 126.5Q619 141 574 157Q551 141 541.5 126.5Q532 112 528 90Q524 68 536.5 55Q549 42 574 42Z" glyph-name="fiveeighths" horiz-adv-x="757" unicode="⅝" /><glyph d="M74 375 108 508H273L265 462H150L131 386Q138 388 145.5 389Q153 390 162 390Q208 390 231.5 361Q255 332 247 286Q240 240 205.5 211Q171 182 120 182Q99 182 76 187Q53 192 30 202L49 246Q67 238 87 233.5Q107 229 124 229Q152 229 170.5 245Q189 261 195 291Q199 317 187 331.5Q175 346 148 346Q132 346 118 343.5Q104 341 92 336ZM198 -11 156 22L563 543L605 510ZM501 212 503 223Q511 269 542 297.5Q573 326 620 326Q673 326 698.5 294.5Q724 263 714 214L697 117Q686 56 654 25.5Q622 -5 570 -5Q549 -5 528 -1Q507 3 489 11L508 55Q520 50 538.5 46Q557 42 571 42Q603 42 620.5 60.5Q638 79 644 120L660 217Q665 248 653.5 263.5Q642 279 615 279Q591 279 576 264Q561 249 556 220L554 209Q549 183 558.5 170Q568 157 590 157Q597 157 605.5 158Q614 159 620 161L632 122Q619 117 607 114.5Q595 112 584 112Q540 112 516.5 140.5Q493 169 501 212Z" glyph-name="fiveninths" horiz-adv-x="752" unicode="" /><glyph d="M65 295 82 390Q92 449 127.5 482.5Q163 516 216 516Q234 516 252.5 512Q271 508 286 501L265 456Q248 464 236.5 466.5Q225 469 214 469Q184 469 163.5 448Q143 427 136 388L119 293Q114 261 125 245Q136 229 164 229Q189 229 204 244Q219 259 223 287L225 298Q230 324 221.5 337.5Q213 351 192 351Q182 351 173 350Q164 349 159 347L148 386Q158 391 170.5 393.5Q183 396 195 396Q239 396 262.5 367Q286 338 279 296L277 285Q269 239 237.5 210.5Q206 182 159 182Q106 182 81 213Q56 244 65 295ZM220 -11 178 22L585 543L627 510ZM534 275 542 321H747L740 279Q694 229 657 165Q620 101 580 0H521Q556 90 592 156Q628 222 670 275Z" glyph-name="sixsevenths" horiz-adv-x="749" unicode="" /><glyph d="M55 462 63 508H268L261 466Q215 416 178 352Q141 288 101 187H42Q77 277 113 343Q149 409 191 462ZM140 -11 98 22L505 543L547 510ZM475 177Q461 189 455.5 205Q450 221 452 239Q457 275 488 300.5Q519 326 563 326Q609 326 634 299Q659 272 652 237Q648 217 636.5 199Q625 181 604 163Q622 150 630 130Q638 110 634 88Q627 47 594 21Q561 -5 512 -5Q463 -5 437 23.5Q411 52 417 92Q421 119 435 139.5Q449 160 475 177ZM564 180Q579 193 588 207.5Q597 222 600 239Q604 259 593 270Q582 281 560 281Q538 281 523 269.5Q508 258 504 237Q501 216 514.5 203Q528 190 564 180ZM516 42Q542 42 559.5 54.5Q577 67 581 90Q585 112 573 126.5Q561 141 516 157Q493 141 483.5 126.5Q474 112 470 90Q466 68 478.5 55Q491 42 516 42Z" glyph-name="seveneighths" horiz-adv-x="699" unicode="⅞" /><glyph d="M48 462 56 508H261L254 466Q208 416 171 352Q134 288 94 187H35Q70 277 106 343Q142 409 184 462ZM128 -11 86 22L493 543L535 510ZM431 212 433 223Q441 269 472 297.5Q503 326 550 326Q603 326 628.5 294.5Q654 263 644 214L627 117Q616 56 584 25.5Q552 -5 500 -5Q479 -5 458 -1Q437 3 419 11L438 55Q450 50 468.5 46Q487 42 501 42Q533 42 550.5 60.5Q568 79 574 120L590 217Q595 248 583.5 263.5Q572 279 545 279Q521 279 506 264Q491 249 486 220L484 209Q479 183 488.5 170Q498 157 520 157Q527 157 535.5 158Q544 159 550 161L562 122Q549 117 537 114.5Q525 112 514 112Q470 112 446.5 140.5Q423 169 431 212Z" glyph-name="sevenninths" horiz-adv-x="682" unicode="" /><glyph d="M116 364Q102 376 96.5 392Q91 408 93 426Q98 462 129 487.5Q160 513 204 513Q250 513 275 486Q300 459 293 424Q289 404 277.5 386Q266 368 245 350Q263 337 271 317Q279 297 275 275Q268 234 235 208Q202 182 153 182Q104 182 78 210.5Q52 239 58 279Q62 306 76 326.5Q90 347 116 364ZM205 367Q220 380 229 394.5Q238 409 241 426Q245 446 234 457Q223 468 201 468Q179 468 164 456.5Q149 445 145 424Q142 403 155.5 390Q169 377 205 367ZM157 229Q183 229 200.5 241.5Q218 254 222 277Q226 299 214 313.5Q202 328 157 344Q134 328 124.5 313.5Q115 299 111 277Q107 255 119.5 242Q132 229 157 229ZM235 -11 193 22L600 543L642 510ZM538 212 540 223Q548 269 579 297.5Q610 326 657 326Q710 326 735.5 294.5Q761 263 751 214L734 117Q723 56 691 25.5Q659 -5 607 -5Q586 -5 565 -1Q544 3 526 11L545 55Q557 50 575.5 46Q594 42 608 42Q640 42 657.5 60.5Q675 79 681 120L697 217Q702 248 690.5 263.5Q679 279 652 279Q628 279 613 264Q598 249 593 220L591 209Q586 183 595.5 170Q605 157 627 157Q634 157 642.5 158Q651 159 657 161L669 122Q656 117 644 114.5Q632 112 621 112Q577 112 553.5 140.5Q530 169 538 212Z" glyph-name="eightninths" horiz-adv-x="789" unicode="" /><glyph d="M201 283 224 413H290L267 283H392L382 226H257L234 96H168L191 226H66L76 283Z" glyph-name="plus" horiz-adv-x="442" unicode="+" /><glyph d="M66 226 76 283H392L382 226Z" glyph-name="minus" horiz-adv-x="442" unicode="−" /><glyph d="M148 398 234 295L356 399L393 355L270 250L357 146L311 108L225 212L102 107L65 151L189 256L103 360Z" glyph-name="multiply" horiz-adv-x="442" unicode="×" /><glyph d="M249 341 196 402L262 458L313 396ZM66 226 76 283H392L382 226ZM197 51 144 112L210 168L261 106Z" glyph-name="divide" horiz-adv-x="442" unicode="÷" /><glyph d="M88 293 98 350H394L384 293ZM64 159 74 216H370L360 159Z" glyph-name="equal" horiz-adv-x="442" unicode="=" /><glyph d="M66 226 76 283H392L370 161H305L317 226Z" glyph-name="logicalnot" horiz-adv-x="442" unicode="¬" /><glyph d="M155 304Q170 304 188 300.5Q206 297 227 289Q257 279 272.5 275Q288 271 298 271Q312 271 321 279Q330 287 337 306L395 285Q380 245 358.5 226.5Q337 208 307 208Q293 208 274.5 212Q256 216 230 225Q200 236 185 239.5Q170 243 160 243Q146 243 137.5 235Q129 227 123 208L65 229Q80 267 102 285.5Q124 304 155 304Z" glyph-name="asciitilde" horiz-adv-x="442" unicode="~" /><glyph d="M75 222 87 287L405 411L394 346L142 252L360 157L349 98Z" glyph-name="less" horiz-adv-x="442" unicode="&lt;" /><glyph d="M317 258 99 352L110 411L384 287L372 222L54 98L65 163Z" glyph-name="greater" horiz-adv-x="442" unicode="&gt;" /><glyph d="M215 350 235 464H296L276 350H394L384 293H266L246 179H185L205 293H88L98 350ZM50 75 60 132H356L346 75Z" glyph-name="plusminus" horiz-adv-x="442" unicode="±" /><glyph d="M50 373 209 594H274L359 373H295L235 537L118 373Z" glyph-name="asciicircum" horiz-adv-x="351" unicode="^" /><glyph d="M98 350 241 350L286 445L340 420L307 350H394L384 293H280L244 216H370L360 159H217L172 64L118 89L151 159H64L74 216H178L214 293H88Z" glyph-name="notequal" horiz-adv-x="442" unicode="≠" /><glyph d="M168 375Q183 375 201 371.5Q219 368 240 360Q270 350 285.5 346Q301 342 311 342Q325 342 334 350Q343 358 350 377L408 356Q393 316 371.5 297.5Q350 279 320 279Q306 279 287.5 283Q269 287 243 296Q213 307 198 310.5Q183 314 173 314Q159 314 150.5 306Q142 298 136 279L78 300Q93 338 115 356.5Q137 375 168 375ZM143 231Q158 231 176 227.5Q194 224 215 216Q245 206 260.5 202Q276 198 286 198Q300 198 309 206Q318 214 325 233L383 212Q368 172 346.5 153.5Q325 135 295 135Q281 135 262.5 139Q244 143 218 152Q188 163 173 166.5Q158 170 148 170Q134 170 125.5 162Q117 154 111 135L53 156Q68 194 90 212.5Q112 231 143 231Z" glyph-name="approxequal" horiz-adv-x="442" unicode="≈" /><glyph d="M83 265 94 330L409 434L398 371L156 295L371 218L361 161ZM49 75 59 132H355L345 75Z" glyph-name="lessequal" horiz-adv-x="442" unicode="≤" /><glyph d="M319 301 103 377L114 434L391 330L380 265L66 161L76 224ZM50 75 60 132H356L346 75Z" glyph-name="greaterequal" horiz-adv-x="442" unicode="≥" /><glyph d="M202 360Q236 360 267.5 342Q299 324 319 293Q351 325 386 342.5Q421 360 454 360Q508 360 536 330.5Q564 301 556 255Q547 204 513.5 176.5Q480 149 426 149Q392 149 360.5 167Q329 185 308 217Q276 183 241.5 165.5Q207 148 174 149Q120 150 92 179.5Q64 209 72 255Q81 305 115 332.5Q149 360 202 360ZM179 198Q202 198 228.5 213Q255 228 283 257Q267 283 245.5 297Q224 311 199 311Q170 311 151.5 296Q133 281 128 255Q123 228 136.5 213Q150 198 179 198ZM429 198Q458 198 476.5 213Q495 228 500 255Q505 281 491.5 296Q478 311 449 311Q426 311 399 296.5Q372 282 341 253Q360 226 382.5 212Q405 198 429 198Z" glyph-name="infinity" horiz-adv-x="610" unicode="∞" /><glyph d="M30 254 232 508H295L406 254L205 0H142ZM181 69 332 261L255 439L103 249Z" glyph-name="lozenge" horiz-adv-x="420" unicode="◊" /><glyph d="M186 76 452 594H525L220 0H142L75 245H7L17 302H124Z" glyph-name="radical" horiz-adv-x="457" unicode="√" /><glyph d="M71 -27 152 440Q165 518 207.5 558.5Q250 599 318 599Q333 599 347.5 597Q362 595 377 590L357 534Q345 538 334.5 539.5Q324 541 314 541Q276 541 251 515Q226 489 218 440L137 -27Q123 -105 80.5 -145.5Q38 -186 -32 -186Q-47 -186 -61.5 -184Q-76 -182 -91 -177L-71 -121Q-59 -125 -48.5 -126.5Q-38 -128 -28 -128Q11 -128 37 -102Q63 -76 71 -27Z" glyph-name="integral" horiz-adv-x="331" unicode="∫" /><glyph d="M273 478 310 531Q396 474 412 413Q428 352 397 249L366 149Q340 64 292 26.5Q244 -11 167 -11Q89 -11 53.5 36.5Q18 84 43 153L49 170Q76 248 122.5 285Q169 322 239 322Q258 322 276.5 318Q295 314 311 306L287 257Q274 261 261 263Q248 265 233 265Q189 266 161 243.5Q133 221 114 169L108 152Q90 100 107.5 73Q125 46 175 46Q222 46 253 71.5Q284 97 300 149L331 249Q360 342 350.5 387.5Q341 433 273 478Z" glyph-name="partialdiff" horiz-adv-x="455" unicode="∂" /><glyph d="M63 452 73 508H566L556 452H472L376 -95H310L406 452H213L117 -95H51L147 452Z" glyph-name="product" horiz-adv-x="533" unicode="∏" /><glyph d="M47 357 57 413H514L504 357H420L380 127Q373 86 381.5 69Q390 52 419 52Q424 52 429 52.5Q434 53 441 54L446 -5Q438 -6 428.5 -6.5Q419 -7 411 -7Q351 -7 327 26Q303 59 314 127L354 357H197L134 0H68L131 357Z" glyph-name="pi" horiz-adv-x="516" unicode="π" /><glyph d="M322 176 364 413H430L357 0H306L301 44Q279 17 251.5 3Q224 -11 193 -11Q162 -11 139.5 3Q117 17 105 43L66 -180H0L104 413H170L126 163Q117 109 136.5 79Q156 49 203 49Q251 49 281 81Q311 113 322 176Z" glyph-name="mu" horiz-adv-x="461" unicode="µ" /><glyph d="M78 537 88 594H431L421 537H149L293 198L30 -123H320L310 -180H-63L-53 -123L218 207Z" glyph-name="summation" horiz-adv-x="358" unicode="∑" /><glyph d="M61 215 80 320Q97 418 154 468.5Q211 519 305 519Q398 519 442 465Q486 411 470 320L451 215Q440 149 419 116Q398 83 358 57H446L436 0H253L263 57Q320 81 347 116Q374 151 385 215L404 320Q416 389 389 425Q362 461 300 461Q237 461 197.5 425Q158 389 146 320L127 215Q116 151 129.5 116Q143 81 188 57L178 0H2L12 57H105Q72 83 61.5 118Q51 153 61 215Z" glyph-name="Omega" horiz-adv-x="510" unicode="Ω" /><glyph d="M-14 59 259 508H330L443 59L433 0H-24ZM59 59 374 59L282 426Z" glyph-name="Delta" horiz-adv-x="481" unicode="∆" /><glyph d="M790 314 790 305H207Q204 305 203 304Q202 303 202 301V125Q202 119 204 114Q206 109 210 105Q254 59 311 34Q368 9 431 9Q498 9 558 37Q618 65 663 116H715Q664 57 589 23.5Q514 -10 430 -10Q281 -10 175.5 85Q70 180 70 314Q70 448 175.5 543Q281 638 430 638Q579 638 684.5 543Q790 448 790 314ZM658 328 658 506Q658 512 656 517.5Q654 523 649 527Q605 571 548.5 595Q492 619 431 619Q369 619 312 594.5Q255 570 211 524Q206 519 204 514Q202 509 202 502V328Q202 326 203.5 324.5Q205 323 207 323H654Q656 323 657 324.5Q658 326 658 328Z" glyph-name="estimated" horiz-adv-x="861" unicode="℮" /><glyph d="M285 -4 27 254L285 512L324 474L134 283H607V225H134L324 34Z" glyph-name="arrowleft" horiz-adv-x="640" unicode="←" /><glyph d="M100 258 62 297L320 555L578 297L540 258L350 447V0H290V447Z" glyph-name="arrowup" horiz-adv-x="640" unicode="↑" /><glyph d="M506 283 316 474L355 512L613 254L355 -4L316 34L506 225H33V283Z" glyph-name="arrowright" horiz-adv-x="640" unicode="→" /><glyph d="M290 97 290 544H350V97L540 286L578 247L320 -11L62 247L100 286Z" glyph-name="arrowdown" horiz-adv-x="640" unicode="↓" /><glyph d="M686 283 496 474L535 512L793 254L535 -4L496 34L686 225H134L324 34L285 -4L27 254L285 512L324 474L134 283Z" glyph-name="arrowboth" horiz-adv-x="820" unicode="↔" /><glyph d="M100 258 62 297L320 555L578 297L540 258L350 447V-75L540 114L578 75L320 -183L62 75L100 114L290 -75V447Z" glyph-name="arrowupdn" horiz-adv-x="640" unicode="↕" /><glyph d="M115 143 115 508H480V452H213L546 118L505 77L173 409V143Z" glyph-name="uni2196" horiz-adv-x="640" unicode="↖" /><glyph d="M160 452 160 508H525V143H467V409L135 77L94 118L427 452Z" glyph-name="uni2197" horiz-adv-x="640" unicode="↗" /><glyph d="M427 133 94 467L135 508L467 176V442H525V77H160V133Z" glyph-name="uni2198" horiz-adv-x="640" unicode="↘" /><glyph d="M173 442 173 176L505 508L546 467L213 133H480V77H115V442Z" glyph-name="uni2199" horiz-adv-x="640" unicode="↙" /><glyph d="M33 230 33 278Q104 309 169 356Q234 403 296 467L337 428Q282 372 236 336Q190 300 152 283H607V225H152Q190 208 236 172Q282 136 337 80L296 41Q234 105 169 152Q104 199 33 230Z" glyph-name="arrowleft.alt" horiz-adv-x="640" unicode="⇐" /><glyph d="M296 594 344 594Q375 525 423 459Q471 393 539 327L498 286Q434 351 400.5 392.5Q367 434 351 466V0H289V466Q273 434 239.5 392.5Q206 351 142 286L101 327Q169 393 217 459Q265 525 296 594Z" glyph-name="arrowup.alt" horiz-adv-x="640" unicode="⇑" /><glyph d="M303 428 344 467Q406 403 471 356Q536 309 607 278V230Q536 199 471 152Q406 105 344 41L303 80Q358 136 404 172Q450 208 488 225H33V283H488Q450 300 404 336Q358 372 303 428Z" glyph-name="arrowright.alt" horiz-adv-x="640" unicode="⇒" /><glyph d="M289 128 289 594H351V128Q367 160 400.5 201.5Q434 243 498 308L539 267Q471 201 423 135Q375 69 344 0H296Q265 69 217 135Q169 201 101 267L142 308Q206 243 239.5 201.5Q273 160 289 128Z" glyph-name="arrowdown.alt" horiz-adv-x="640" unicode="⇓" /><glyph d="M483 428 524 467Q586 403 651 356Q716 309 787 278V230Q716 199 651 152Q586 105 524 41L483 80Q538 136 584 172Q630 208 668 225H152Q190 208 236 172Q282 136 337 80L296 41Q234 105 169 152Q104 199 33 230V278Q104 309 169 356Q234 403 296 467L337 428Q282 372 236 336Q190 300 152 283H668Q630 300 584 336Q538 372 483 428Z" glyph-name="arrowboth.alt" horiz-adv-x="820" unicode="⇔" /><glyph d="M296 594 344 594Q375 525 423 459Q471 393 539 327L498 286Q434 351 400.5 392.5Q367 434 351 466V-52Q367 -20 400.5 21.5Q434 63 498 128L539 87Q471 21 423 -45Q375 -111 344 -180H296Q265 -111 217 -45Q169 21 101 87L142 128Q206 63 239.5 21.5Q273 -20 289 -52V466Q273 434 239.5 392.5Q206 351 142 286L101 327Q169 393 217 459Q265 525 296 594Z" glyph-name="arrowupdn.alt" horiz-adv-x="640" unicode="⇕" /><glyph d="M93 477 127 511Q196 484 277 471.5Q358 459 454 460V402Q361 403 308.5 408.5Q256 414 222 425L552 96L508 52L179 382Q190 348 195.5 295.5Q201 243 202 150H144Q145 246 132.5 327Q120 408 93 477Z" glyph-name="uni21D6" horiz-adv-x="640" unicode="⇖" /><glyph d="M186 402 186 460Q282 459 363 471.5Q444 484 513 511L547 477Q520 408 507.5 327Q495 246 496 150H438Q439 243 444.5 295.5Q450 348 461 382L132 52L88 96L418 425Q384 414 331.5 408.5Q279 403 186 402Z" glyph-name="uni21D7" horiz-adv-x="640" unicode="⇗" /><glyph d="M418 138 88 467L132 511L461 181Q450 215 444.5 267.5Q439 320 438 413H496Q495 317 507.5 236Q520 155 547 86L513 52Q444 79 363 91.5Q282 104 186 103V161Q279 160 331.5 154.5Q384 149 418 138Z" glyph-name="uni21D8" horiz-adv-x="640" unicode="⇘" /><glyph d="M179 181 508 511L552 467L222 138Q256 149 308.5 154.5Q361 160 454 161V103Q358 104 277 91.5Q196 79 127 52L93 86Q120 155 132.5 236Q145 317 144 413H202Q201 320 195.5 267.5Q190 215 179 181Z" glyph-name="uni21D9" horiz-adv-x="640" unicode="⇙" /></font>
</defs>
</svg>
