<?xml version="1.0" standalone="no"?>
<!DOCTYPE svg
  PUBLIC '-//W3C//DTD SVG 1.1//EN'
  'http://www.w3.org/Graphics/SVG/1.1/DTD/svg11.dtd'><svg version="1.1" xmlns="http://www.w3.org/2000/svg"><defs><font horiz-adv-x="0" id="font"><font-face ascent="730" bbox="-86 -230 1109 825" cap-height="512" descent="-270" font-family="Unistra A" font-stretch="normal" font-style="normal" font-weight="512" units-per-em="1000" x-height="415" /><missing-glyph d="" horiz-adv-x="200" /><glyph d="" glyph-name=".null" horiz-adv-x="0" unicode="" /><glyph d="" glyph-name="CR" horiz-adv-x="0" unicode="" /><glyph d="" glyph-name="space" horiz-adv-x="158" unicode=" " /><glyph d="" glyph-name="uni00A0" horiz-adv-x="158" unicode=" " /><glyph d="M177 175 319 175L248 380ZM-5 0 184 512H312L501 0H380L353 79H143L116 0Z" glyph-name="A" horiz-adv-x="496" unicode="A" /><glyph d="M57 0 57 512H258Q349 512 397.5 476.5Q446 441 446 378Q446 339 428.5 311.5Q411 284 376 266Q418 254 441 223.5Q464 193 464 149Q464 76 413.5 38Q363 0 266 0ZM327 362Q327 390 309 405Q291 420 258 420H177V93H264Q304 93 324 108Q344 123 344 154Q344 190 315 204Q286 218 210 218L206 299Q278 304 302.5 317Q327 330 327 362Z" glyph-name="B" horiz-adv-x="495" unicode="B" /><glyph d="M35 200 35 312Q35 405 94.5 464Q154 523 251 523Q288 523 323.5 515.5Q359 508 394 493L354 399Q330 409 304.5 415Q279 421 259 421Q208 421 181.5 393Q155 365 155 312V200Q155 148 185 119.5Q215 91 269 91Q288 91 310 96Q332 101 362 113L401 18Q362 2 330.5 -4.5Q299 -11 263 -11Q158 -11 96.5 45Q35 101 35 200Z" glyph-name="C" horiz-adv-x="410" unicode="C" /><glyph d="M57 0 57 512H240Q344 512 402 457Q460 402 460 305V207Q460 111 400.5 55.5Q341 0 236 0ZM340 207 340 305Q340 359 313.5 387Q287 415 236 415H177V97H236Q287 97 313.5 125Q340 153 340 207Z" glyph-name="D" horiz-adv-x="495" unicode="D" /><glyph d="M57 0 57 512H389V415H177V307H365V210H177V97H396V0Z" glyph-name="E" horiz-adv-x="430" unicode="E" /><glyph d="M57 0 57 512H389V415H177V286H365V189H177V0Z" glyph-name="F" horiz-adv-x="416" unicode="F" /><glyph d="M35 200 35 312Q35 407 97 465Q159 523 263 523Q301 523 338 515.5Q375 508 408 493L368 399Q338 411 314 416Q290 421 266 421Q212 421 182 392Q152 363 152 312V200Q152 148 183 119Q214 90 269 90Q282 90 294.5 91Q307 92 320 95V196H250V290H427V28Q396 9 354 -1Q312 -11 263 -11Q158 -11 96.5 45Q35 101 35 200Z" glyph-name="G" horiz-adv-x="475" unicode="G" /><glyph d="M355 307 355 512H475V0H355V207H177V0H57V512H177V307Z" glyph-name="H" horiz-adv-x="532" unicode="H" /><glyph d="M57 0 57 512H177V0Z" glyph-name="I" horiz-adv-x="234" unicode="I" /><glyph d="M175 184 175 512H295V197Q295 90 249 39.5Q203 -11 107 -11Q79 -11 51.5 -6Q24 -1 -5 9L32 108Q51 101 66.5 98.5Q82 96 99 96Q139 96 157 117.5Q175 139 175 184Z" glyph-name="J" horiz-adv-x="340" unicode="J" /><glyph d="M177 295 337 512H475L309 297L485 0H349L234 199L177 124V0H57V512H177Z" glyph-name="K" horiz-adv-x="472" unicode="K" /><glyph d="M57 0 57 512H177V103H377V0Z" glyph-name="L" horiz-adv-x="397" unicode="L" /><glyph d="M337 188 485 512H616V0H497L499 311L389 74H284L174 311L176 0H57V512H188Z" glyph-name="M" horiz-adv-x="673" unicode="M" /><glyph d="M364 184 361 512H479V0H353L172 332L175 0H57V512H185Z" glyph-name="N" horiz-adv-x="536" unicode="N" /><glyph d="M35 200 35 312Q35 409 92 466Q149 523 249 523Q349 523 406 466Q463 409 463 312V200Q463 103 406 46Q349 -11 249 -11Q149 -11 92 46Q35 103 35 200ZM343 200 343 312Q343 366 319 394Q295 422 249 422Q203 422 179 394Q155 366 155 312V200Q155 146 179 118.5Q203 91 249 91Q295 91 319 118.5Q343 146 343 200Z" glyph-name="O" horiz-adv-x="498" unicode="O" /><glyph d="M57 0 57 512H257Q348 512 400.5 464Q453 416 453 337V293Q453 215 405.5 168Q358 121 277 121Q255 121 236.5 123.5Q218 126 198 132L216 221Q229 219 238 218.5Q247 218 256 218Q293 218 313 239Q333 260 333 298V337Q333 376 310 395.5Q287 415 242 415H177V0Z" glyph-name="P" horiz-adv-x="483" unicode="P" /><glyph d="M35 200 35 312Q35 409 92 466Q149 523 249 523Q349 523 406 466Q463 409 463 312V204Q463 156 447.5 122.5Q432 89 396 55L321 117Q333 136 338 155.5Q343 175 343 204V312Q343 366 319 394Q295 422 249 422Q203 422 179 394Q155 366 155 312V200Q155 147 181 118Q207 89 268 77Q338 63 381.5 36Q425 9 468 -42L389 -115Q351 -74 319 -54Q287 -34 240 -24Q135 0 85 54.5Q35 109 35 200Z" glyph-name="Q" horiz-adv-x="505" unicode="Q" /><glyph d="M57 0 57 512H250Q338 512 390.5 464.5Q443 417 443 345V305Q443 266 425.5 233Q408 200 377 177L461 0H330L269 144Q248 145 229.5 147Q211 149 198 152L216 241Q229 239 238 238.5Q247 238 256 238Q287 238 305 257Q323 276 323 310V345Q323 378 299.5 396.5Q276 415 235 415H177V0Z" glyph-name="R" horiz-adv-x="483" unicode="R" /><glyph d="M70 280Q46 301 35 326Q24 351 24 385Q24 445 74.5 484Q125 523 200 523Q241 523 279 514.5Q317 506 369 483L329 389Q288 407 260.5 413.5Q233 420 206 420Q176 420 160.5 410Q145 400 145 380Q145 367 154 357Q163 347 228 310Q277 282 296.5 269Q316 256 330 244Q354 222 365 196.5Q376 171 376 137Q376 68 326.5 28.5Q277 -11 193 -11Q151 -11 110 -2.5Q69 6 16 26L53 125Q108 106 137 99.5Q166 93 193 93Q221 93 238 105Q255 117 255 136Q255 153 239.5 169Q224 185 170 216Q119 245 101 257Q83 269 70 280Z" glyph-name="S" horiz-adv-x="397" unicode="S" /><glyph d="M70 280Q46 301 35 326Q24 351 24 385Q24 444 73.5 483.5Q123 523 193 523Q234 523 270.5 509.5Q307 496 352 462Q385 436 407 425.5Q429 415 455 415Q481 415 493 438Q505 461 510 512H601V415H675V318H601V155Q601 126 612.5 112.5Q624 99 651 99Q659 99 663.5 99Q668 99 673 100L683 -5Q672 -7 661.5 -7.5Q651 -8 641 -8Q564 -8 522.5 34.5Q481 77 481 152V318Q443 318 401 333Q359 348 318 376Q282 401 255.5 410.5Q229 420 199 420Q174 420 159.5 409.5Q145 399 145 380Q145 367 154 357Q163 347 228 310Q277 282 296.5 269Q316 256 330 244Q354 222 365 196.5Q376 171 376 137Q376 68 326.5 28.5Q277 -11 193 -11Q151 -11 110 -2.5Q69 6 16 26L53 125Q108 106 137 99.5Q166 93 193 93Q221 93 238 105Q255 117 255 136Q255 153 239.5 169Q224 185 170 216Q119 245 101 257Q83 269 70 280Z" glyph-name="S_t" horiz-adv-x="709" unicode="" /><glyph d="M10 415 10 512H396V415H263V0H143V415Z" glyph-name="T" horiz-adv-x="406" unicode="T" /><glyph d="M337 205 337 512H457V205Q457 97 405.5 43Q354 -11 251 -11Q147 -11 96 42.5Q45 96 45 205V512H165V205Q165 145 185.5 117.5Q206 90 251 90Q296 90 316.5 117.5Q337 145 337 205Z" glyph-name="U" horiz-adv-x="502" unicode="U" /><glyph d="M234 119 343 512H466L316 0H151L3 512H126Z" glyph-name="V" horiz-adv-x="469" unicode="V" /><glyph d="M518 109 561 512H678L617 0H453L351 246L249 0H85L24 512H141L184 109L294 374H408Z" glyph-name="W" horiz-adv-x="702" unicode="W" /><glyph d="M224 369 312 512H449L293 266L456 0H320L226 158L129 0H-8L158 265L0 512H137Z" glyph-name="X" horiz-adv-x="448" unicode="X" /><glyph d="M223 279 329 512H456L283 153V0H163V153L-10 512H117Z" glyph-name="Y" horiz-adv-x="446" unicode="Y" /><glyph d="M26 413 26 512H378V413L159 99H381V0H23V99L242 413Z" glyph-name="Z" horiz-adv-x="406" unicode="Z" /><glyph d="M-30 1 276 512H633V415H443V307H609V210H443V97H640V0H331V80H144L97 0ZM198 173 331 173V399Z" glyph-name="AE" horiz-adv-x="674" unicode="Æ" /><glyph d="M255 512 620 512V415H430V307H596V210H430V97H627V0H259Q154 0 94.5 54.5Q35 109 35 203V309Q35 404 93 458Q151 512 255 512ZM259 97 318 97V415H259Q209 415 182 388Q155 361 155 309V203Q155 151 182 124Q209 97 259 97Z" glyph-name="OE" horiz-adv-x="661" unicode="Œ" /><glyph d="M48 280 48 512H168V349L240 390L283 315L168 249V103H368V0H48V180L10 158L-33 234Z" glyph-name="Lslash" horiz-adv-x="388" unicode="Ł" /><glyph d="M343 200 343 312Q343 366 319 394Q295 422 249 422Q203 422 179 394Q155 366 155 312V200Q155 146 179 118.5Q203 91 249 91Q295 91 319 118.5Q343 146 343 200ZM249 523Q262 523 274.5 522Q287 521 301 518L332 594L417 560L386 484Q423 456 443 411.5Q463 367 463 312V200Q463 103 406 46Q349 -11 249 -11Q239 -11 227.5 -10Q216 -9 197 -5L166 -82L81 -48L112 29Q75 57 55 101Q35 145 35 200V312Q35 409 92 466Q149 523 249 523Z" glyph-name="Oslash" horiz-adv-x="498" unicode="Ø" /><glyph d="M57 301 57 512H240Q344 512 402 457Q460 402 460 305V207Q460 111 400.5 55.5Q341 0 236 0H57V216H0V301ZM340 207 340 305Q340 359 313.5 387Q287 415 236 415H177V301H265V216H177V97H236Q287 97 313.5 125Q340 153 340 207Z" glyph-name="Eth" horiz-adv-x="495" unicode="Ð" /><glyph d="M57 0 57 512H177V454H257Q348 454 400.5 406Q453 358 453 279V235Q453 157 405.5 110Q358 63 277 63Q255 63 236.5 65.5Q218 68 198 74L216 163Q229 161 238 160.5Q247 160 256 160Q293 160 313 181Q333 202 333 240V279Q333 318 310 337.5Q287 357 242 357H177V0Z" glyph-name="Thorn" horiz-adv-x="483" unicode="Þ" /><glyph d="M183 82Q220 82 240.5 105Q261 128 260 170V196Q190 193 164 178Q138 163 138 129Q138 107 150 94.5Q162 82 183 82ZM80 307 45 391Q85 408 124.5 417Q164 426 202 426Q285 426 331.5 385.5Q378 345 378 272V0H289L276 45Q255 18 223.5 3.5Q192 -11 154 -11Q91 -11 55.5 20.5Q20 52 20 109Q20 187 80 226Q140 265 261 267V272Q261 302 243 318Q225 334 190 334Q164 334 137.5 327.5Q111 321 80 307Z" glyph-name="a" horiz-adv-x="425" unicode="a" /><glyph d="M57 0 57 594H177V175Q177 137 195.5 115Q214 93 245 93Q280 93 297.5 114.5Q315 136 315 179V250Q315 288 301 306.5Q287 325 257 325Q249 325 241 323.5Q233 322 221 319L196 404Q217 416 238 421Q259 426 282 426Q355 426 395 379Q435 332 435 250V179Q435 94 392.5 41.5Q350 -11 276 -11Q236 -11 207 3Q178 17 159 45L146 0Z" glyph-name="b" horiz-adv-x="472" unicode="b" /><glyph d="M37 175 37 240Q37 325 86.5 375.5Q136 426 223 426Q259 426 293 418Q327 410 352 396L311 310Q292 319 271.5 324Q251 329 233 329Q195 329 176 307Q157 285 157 240V175Q157 130 176 108Q195 86 235 86Q251 86 272 91.5Q293 97 319 108L359 21Q326 4 295.5 -3.5Q265 -11 232 -11Q138 -11 87.5 37Q37 85 37 175Z" glyph-name="c" horiz-adv-x="371" unicode="c" /><glyph d="M295 175 295 594H415V0H326L313 45Q291 17 260 3Q229 -11 191 -11Q116 -11 76.5 38Q37 87 37 177V239Q37 320 80 373Q123 426 195 426Q218 426 237 422Q256 418 274 410L256 321Q248 323 239 324Q230 325 223 325Q188 325 172.5 304.5Q157 284 157 239V177Q157 133 172 113Q187 93 221 93Q256 93 275.5 114.5Q295 136 295 175Z" glyph-name="d" horiz-adv-x="472" unicode="d" /><glyph d="M37 175 37 240Q37 329 86 377.5Q135 426 225 426Q314 426 363.5 376Q413 326 413 235Q413 217 412.5 202.5Q412 188 410 165H156Q156 122 177 101.5Q198 81 242 81Q265 81 296 88Q327 95 349 105L388 21Q353 4 316.5 -3.5Q280 -11 233 -11Q138 -11 87.5 37Q37 85 37 175ZM295 249 295 253Q295 297 277.5 318Q260 339 225 339Q191 339 173.5 317.5Q156 296 156 253V249Z" glyph-name="e" horiz-adv-x="443" unicode="e" /><glyph d="M90 415 90 430Q90 508 138.5 556.5Q187 605 271 605Q283 605 297 603.5Q311 602 322 599L306 496Q298 498 290 498.5Q282 499 275 499Q243 499 226.5 481.5Q210 464 210 430V415H304V318H210V0H90V318H16V415Z" glyph-name="f" horiz-adv-x="329" unicode="f" /><glyph d="M37 165 37 236Q37 321 79.5 373.5Q122 426 196 426Q236 426 265 412Q294 398 313 370L326 415H415V0Q415 -97 363.5 -143.5Q312 -190 208 -190Q174 -190 138.5 -183.5Q103 -177 66 -164L97 -69Q131 -80 155 -85Q179 -90 199 -90Q250 -90 272.5 -70Q295 -50 295 0V240Q295 278 276.5 300Q258 322 227 322Q192 322 174.5 300.5Q157 279 157 236V165Q157 127 171 108.5Q185 90 215 90Q223 90 231 91.5Q239 93 251 96L276 11Q255 -1 234 -6Q213 -11 190 -11Q117 -11 77 36Q37 83 37 165Z" glyph-name="g" horiz-adv-x="472" unicode="g" /><glyph d="M57 0 57 594H177V389Q198 407 224 416.5Q250 426 281 426Q356 426 394.5 377.5Q433 329 433 238V0H313V238Q313 282 298.5 302Q284 322 251 322Q216 322 196.5 300.5Q177 279 177 240V0Z" glyph-name="h" horiz-adv-x="480" unicode="h" /><glyph d="M117 463 28 552L117 641L206 552ZM57 0 57 415H177V0Z" glyph-name="i" horiz-adv-x="234" unicode="i" /><glyph d="M117 463 28 552L117 641L206 552ZM57 -28 57 415H177V-30Q177 -110 139 -150.5Q101 -191 26 -191Q13 -191 -1 -190Q-15 -189 -30 -186L-20 -85Q-11 -86 -5 -86.5Q1 -87 7 -87Q34 -87 45.5 -73Q57 -59 57 -28Z" glyph-name="j" horiz-adv-x="234" unicode="j" /><glyph d="M57 -1 57 594H171V247L299 415H439L295 234L441 0H310L222 142L171 78V-1Z" glyph-name="k" horiz-adv-x="449" unicode="k" /><glyph d="M57 0 57 594H177V0Z" glyph-name="l" horiz-adv-x="234" unicode="l" /><glyph d="M279 426Q321 426 351 410Q381 394 399 361Q421 393 453.5 409.5Q486 426 526 426Q598 426 634.5 378.5Q671 331 671 238V0H551V238Q551 282 537 302Q523 322 493 322Q461 322 442.5 300Q424 278 424 238V0H304V238Q304 282 290 302Q276 322 246 322Q214 322 195.5 300Q177 278 177 238V0H57V415H146L159 369Q181 397 211 411.5Q241 426 279 426Z" glyph-name="m" horiz-adv-x="718" unicode="m" /><glyph d="M146 415 159 370Q181 398 212 412Q243 426 281 426Q356 426 394.5 377.5Q433 329 433 238V0H313V238Q313 282 298.5 302Q284 322 251 322Q216 322 196.5 300.5Q177 279 177 240V0H57V415Z" glyph-name="n" horiz-adv-x="480" unicode="n" /><glyph d="M37 175 37 240Q37 329 86 377.5Q135 426 225 426Q315 426 364 377.5Q413 329 413 240V175Q413 86 364 37.5Q315 -11 225 -11Q135 -11 86 37.5Q37 86 37 175ZM294 172 294 243Q294 288 277 309.5Q260 331 225 331Q190 331 173 309.5Q156 288 156 243V172Q156 126 172.5 105Q189 84 225 84Q261 84 277.5 105Q294 126 294 172Z" glyph-name="o" horiz-adv-x="450" unicode="o" /><glyph d="M146 415 159 370Q181 398 212 412Q243 426 281 426Q356 426 395.5 377Q435 328 435 238V176Q435 95 392 42Q349 -11 277 -11Q254 -11 235 -7Q216 -3 198 5L216 94Q224 92 233 91Q242 90 249 90Q284 90 299.5 110.5Q315 131 315 176V238Q315 282 300 302Q285 322 251 322Q216 322 196.5 300.5Q177 279 177 240V-180H57V415Z" glyph-name="p" horiz-adv-x="472" unicode="p" /><glyph d="M37 165 37 236Q37 321 79.5 373.5Q122 426 196 426Q236 426 265 412Q294 398 313 370L326 415H415V-180H295V240Q295 278 276.5 300Q258 322 227 322Q192 322 174.5 300.5Q157 279 157 236V165Q157 127 171 108.5Q185 90 215 90Q223 90 231 91.5Q239 93 251 96L276 11Q255 -1 234 -6Q213 -11 190 -11Q117 -11 77 36Q37 83 37 165Z" glyph-name="q" horiz-adv-x="472" unicode="q" /><glyph d="M146 415 166 348Q186 385 217 404Q248 423 288 423Q299 423 311 421.5Q323 420 336 417L316 301Q303 303 294 304Q285 305 276 305Q230 305 203.5 275Q177 245 177 189V0H57V415Z" glyph-name="r" horiz-adv-x="337" unicode="r" /><glyph d="M72 213Q51 230 40.5 251.5Q30 273 30 299Q30 357 74.5 391.5Q119 426 187 426Q227 426 266.5 417Q306 408 338 391L295 301Q267 315 241 322Q215 329 193 329Q171 329 160 322Q149 315 149 302Q149 292 157 285.5Q165 279 213 255Q293 216 316 187.5Q339 159 339 112Q339 55 294.5 22Q250 -11 179 -11Q138 -11 102.5 -5Q67 1 24 17L59 111Q92 98 120.5 92Q149 86 175 86Q197 86 210 94Q223 102 223 115Q223 126 215.5 133.5Q208 141 159 164Q116 184 100 193.5Q84 203 72 213Z" glyph-name="s" horiz-adv-x="367" unicode="s" /><glyph d="M115 512 206 512V415H280V318H206V155Q206 126 217.5 112.5Q229 99 256 99Q264 99 268.5 99Q273 99 278 100L288 -5Q277 -7 266.5 -7.5Q256 -8 246 -8Q169 -8 127.5 34.5Q86 77 86 152V318H12V415H32Q75 415 92.5 437.5Q110 460 115 512Z" glyph-name="t" horiz-adv-x="314" unicode="t" /><glyph d="M303 175 303 415H423V0H334L321 45Q299 17 268 3Q237 -11 199 -11Q124 -11 85.5 37.5Q47 86 47 177V415H167V177Q167 133 181.5 113Q196 93 229 93Q264 93 283.5 114.5Q303 136 303 175Z" glyph-name="u" horiz-adv-x="480" unicode="u" /><glyph d="M224 117 316 415H440L303 0H144L7 415H131Z" glyph-name="v" horiz-adv-x="447" unicode="v" /><glyph d="M507 111 570 415H692L598 0H430L361 267L292 0H124L30 415H152L215 111L299 415H423Z" glyph-name="w" horiz-adv-x="722" unicode="w" /><glyph d="M232 297 303 415H443L309 222L451 0H311L225 133L147 0H6L150 212L15 415H156Z" glyph-name="x" horiz-adv-x="457" unicode="x" /><glyph d="M225 141 318 415H446L275 -41Q249 -111 241.5 -124.5Q234 -138 226 -148Q208 -170 182 -180.5Q156 -191 119 -191Q106 -191 92 -190Q78 -189 63 -186L73 -85Q82 -86 88 -86.5Q94 -87 100 -87Q124 -87 136.5 -77Q149 -67 157 -43L166 -14L4 415H132Z" glyph-name="y" horiz-adv-x="450" unicode="y" /><glyph d="M35 317 35 415H352V317L168 98H357V0H30V98L213 317Z" glyph-name="z" horiz-adv-x="399" unicode="z" /><glyph d="M200 426Q239 426 269 414Q299 402 318 379Q341 402 373.5 414Q406 426 446 426Q524 426 567.5 379.5Q611 333 611 247V230L609 177H369Q369 127 387.5 107Q406 87 450 87Q471 87 496.5 93Q522 99 548 111L590 21Q554 3 520.5 -4Q487 -11 444 -11Q396 -11 362 3.5Q328 18 306 48Q283 20 246.5 4.5Q210 -11 164 -11Q96 -11 58 20.5Q20 52 20 109Q20 183 77 217.5Q134 252 257 252V272Q257 301 237.5 315.5Q218 330 180 330Q159 330 139 325.5Q119 321 87 306L51 390Q93 409 128.5 417.5Q164 426 200 426ZM501 252 501 261Q501 294 484 312.5Q467 331 436 331Q404 331 386.5 312.5Q369 294 369 261V252ZM178 76Q211 76 234 98Q257 120 257 150V177Q186 176 159.5 163.5Q133 151 133 121Q133 100 145 88Q157 76 178 76Z" glyph-name="ae" horiz-adv-x="641" unicode="æ" /><glyph d="M215 426Q256 426 288 414Q320 402 342 378Q365 402 397 414Q429 426 470 426Q548 426 591.5 379.5Q635 333 635 247V230L633 177H393Q393 127 411.5 107Q430 87 474 87Q495 87 520.5 93Q546 99 572 111L614 21Q578 3 544.5 -4Q511 -11 468 -11Q425 -11 392.5 1Q360 13 338 37Q317 13 286 1Q255 -11 214 -11Q131 -11 84 38.5Q37 88 37 175V240Q37 328 84.5 377Q132 426 215 426ZM525 252 525 261Q525 294 508 312.5Q491 331 460 331Q428 331 410.5 312.5Q393 294 393 261V252ZM281 175 281 240Q281 284 266 305Q251 326 219 326Q187 326 172 305Q157 284 157 240V175Q157 130 172 109.5Q187 89 219 89Q251 89 266 109.5Q281 130 281 175Z" glyph-name="oe" horiz-adv-x="665" unicode="œ" /><glyph d="M177 259 177 0H57V190L8 162L-31 230L57 280V594H177V349L226 377L265 310Z" glyph-name="lslash" horiz-adv-x="234" unicode="ł" /><glyph d="M294 172 294 243Q294 288 277 309.5Q260 331 225 331Q190 331 173 309.5Q156 288 156 243V172Q156 126 172.5 105Q189 84 225 84Q261 84 277.5 105Q294 126 294 172ZM225 426Q238 426 249.5 425Q261 424 270 422L300 497L385 463L354 386Q383 362 398 325Q413 288 413 240V175Q413 86 364 37.5Q315 -11 225 -11Q214 -11 203.5 -10.5Q193 -10 183 -8L153 -83L68 -49L98 27Q68 51 52.5 88.5Q37 126 37 175V240Q37 329 86 377.5Q135 426 225 426Z" glyph-name="oslash" horiz-adv-x="450" unicode="ø" /><glyph d="M153 532 211 625Q237 612 261.5 596Q286 580 311 561L377 599L412 533L359 503Q385 470 400 409.5Q415 349 415 280V169Q415 87 365 38Q315 -11 226 -11Q137 -11 87 38Q37 87 37 169V196Q37 273 78.5 323.5Q120 374 190 374Q215 374 235 370Q255 366 273 358L252 269Q244 271 235 272Q226 273 218 273Q185 273 171 255.5Q157 238 157 196V169Q157 131 174.5 112Q192 93 226 93Q260 93 277.5 112Q295 131 295 169V280Q295 337 285.5 381.5Q276 426 259 446L190 406L155 472L204 500Q192 509 179 517Q166 525 153 532Z" glyph-name="eth" horiz-adv-x="467" unicode="ð" /><glyph d="M57 -180 57 594H177V389Q198 407 224 416.5Q250 426 281 426Q356 426 395.5 377Q435 328 435 238V176Q435 95 392 42Q349 -11 277 -11Q254 -11 235 -7Q216 -3 198 5L216 94Q224 92 233 91Q242 90 249 90Q284 90 299.5 110.5Q315 131 315 176V238Q315 282 300 302Q285 322 251 322Q216 322 196.5 300.5Q177 279 177 240V-180Z" glyph-name="thorn" horiz-adv-x="472" unicode="þ" /><glyph d="M146 512 159 467Q181 495 212 509Q243 523 281 523Q357 523 399.5 483Q442 443 442 376Q442 344 424.5 318.5Q407 293 372 276Q413 264 436.5 229.5Q460 195 460 149Q460 76 412.5 32.5Q365 -11 284 -11Q257 -11 234.5 -7Q212 -3 194 5L212 94Q223 91 234.5 90Q246 89 261 89Q300 89 320.5 106Q341 123 341 155Q341 197 312 212.5Q283 228 206 228L202 309Q275 314 299.5 327Q324 340 324 372Q324 402 308 417Q292 432 261 432Q221 432 197 406Q173 380 173 332V-180H57V512Z" glyph-name="germandbls" horiz-adv-x="491" unicode="ß" /><glyph d="M57 0 57 415H177V0Z" glyph-name="dotlessi" horiz-adv-x="234" unicode="ı" /><glyph d="M57 -28 57 415H177V-30Q177 -110 139 -150.5Q101 -191 26 -191Q13 -191 -1 -190Q-15 -189 -30 -186L-20 -85Q-11 -86 -5 -86.5Q1 -87 7 -87Q34 -87 45.5 -73Q57 -59 57 -28Z" glyph-name="dotlessj" horiz-adv-x="234" unicode="ȷ" /><glyph d="M90 415 90 430Q90 508 138.5 556.5Q187 605 271 605Q283 605 297 603.5Q311 602 322 599L306 496Q298 498 290 498.5Q282 499 275 499Q243 499 226.5 481.5Q210 464 210 430V415H304V318H210V0H90V318H16V415ZM446 463 357 552L446 641L535 552ZM386 0 386 415H506V0Z" glyph-name="fi" horiz-adv-x="563" unicode="ﬁ" /><glyph d="M90 415 90 430Q90 508 138.5 556.5Q187 605 271 605Q283 605 297 603.5Q311 602 322 599L306 496Q298 498 290 498.5Q282 499 275 499Q243 499 226.5 481.5Q210 464 210 430V415H304V318H210V0H90V318H16V415ZM386 0 386 594H506V0Z" glyph-name="fl" horiz-adv-x="563" unicode="ﬂ" /><glyph d="M35 200 35 312Q35 409 92 466Q149 523 249 523Q349 523 406 466Q463 409 463 312V204Q463 156 447.5 122.5Q432 89 396 55L321 117Q333 136 338 155.5Q343 175 343 204V312Q343 366 319 394Q295 422 249 422Q203 422 179 394Q155 366 155 312V200Q155 147 181 118Q207 89 269 77Q319 68 358 48.5Q397 29 431 -4Q479 -49 523.5 -62.5Q568 -76 652 -80L643 -184Q549 -182 480.5 -160Q412 -138 367 -94Q333 -61 309.5 -47.5Q286 -34 240 -24Q135 0 85 54.5Q35 109 35 200ZM811 175 811 415H931V0H842L829 45Q807 17 776 3Q745 -11 707 -11Q632 -11 593.5 37.5Q555 86 555 177V415H675V177Q675 133 689.5 113Q704 93 737 93Q772 93 791.5 114.5Q811 136 811 175Z" glyph-name="Q_u" horiz-adv-x="988" unicode="" /><glyph d="M177 175 319 175L248 380ZM-5 0 184 512H312L501 0H380L353 79H143L116 0ZM201 562 153 636L303 742L358 656Z" glyph-name="Aacute" horiz-adv-x="496" unicode="Á" /><glyph d="M177 175 319 175L248 380ZM-5 0 184 512H312L501 0H380L353 79H143L116 0ZM152 574 111 648L249 730L386 648L345 574L249 624Z" glyph-name="Acircumflex" horiz-adv-x="496" unicode="Â" /><glyph d="M177 175 319 175L248 380ZM-5 0 184 512H312L501 0H380L353 79H143L116 0ZM346 572 265 652L346 732L426 652ZM152 572 71 652L152 732L232 652Z" glyph-name="Adieresis" horiz-adv-x="496" unicode="Ä" /><glyph d="M177 175 319 175L248 380ZM-5 0 184 512H312L501 0H380L353 79H143L116 0ZM303 562 146 656L201 742L351 636Z" glyph-name="Agrave" horiz-adv-x="496" unicode="À" /><glyph d="M177 175 319 175L248 380ZM-5 0 184 512H312L501 0H380L353 79H143L116 0ZM130 671 130 686Q130 733 162 763Q194 793 248 793Q302 793 334.5 763Q367 733 367 686V671Q367 624 334.5 594Q302 564 248 564Q194 564 162 594Q130 624 130 671ZM288 672 288 684Q288 707 279 717.5Q270 728 249 728Q228 728 218.5 717.5Q209 707 209 684V672Q209 648 218.5 637.5Q228 627 249 627Q270 627 279 637.5Q288 648 288 672Z" glyph-name="Aring" horiz-adv-x="496" unicode="Å" /><glyph d="M177 175 319 175L248 380ZM-5 0 184 512H312L501 0H380L353 79H143L116 0ZM281 684Q291 684 296 692Q301 700 301 716H380Q380 655 360.5 622.5Q341 590 305 590Q294 590 282.5 593.5Q271 597 250 607Q234 615 227 617.5Q220 620 214 620Q204 620 199 612Q194 604 194 588H115Q115 649 134.5 681.5Q154 714 190 714Q201 714 212.5 710.5Q224 707 245 697Q261 689 268 686.5Q275 684 281 684Z" glyph-name="Atilde" horiz-adv-x="496" unicode="Ã" /><glyph d="M177 175 319 175L248 380ZM-5 0 184 512H312L501 0H380L353 79H143L116 0ZM252 671Q270 671 280 683.5Q290 696 291 721H372Q373 659 340 621.5Q307 584 252 584Q198 584 165 621.5Q132 659 131 721H213Q214 696 224 683.5Q234 671 252 671Z" glyph-name="Abreve" horiz-adv-x="496" unicode="Ă" /><glyph d="M177 175 319 175L248 380ZM-5 0 184 512H312L501 0H380L353 79H143L116 0ZM142 596 142 686H355V596Z" glyph-name="Amacron" horiz-adv-x="496" unicode="Ā" /><glyph d="M364 -104Q364 -82 377.5 -53Q391 -24 412 0H380L353 79H143L116 0H-5L184 512H312L501 0Q475 -28 465.5 -45Q456 -62 456 -76Q456 -91 466 -98Q476 -105 497 -105V-191Q428 -191 396 -170Q364 -149 364 -104ZM177 175 319 175L248 380Z" glyph-name="Aogonek" horiz-adv-x="496" unicode="Ą" /><glyph d="M35 200 35 312Q35 405 94.5 464Q154 523 251 523Q288 523 323.5 515.5Q359 508 394 493L354 399Q330 409 304.5 415Q279 421 259 421Q208 421 181.5 393Q155 365 155 312V200Q155 148 185 119.5Q215 91 269 91Q288 91 310 96Q332 101 362 113L401 18Q362 2 330.5 -4.5Q299 -11 263 -11Q158 -11 96.5 45Q35 101 35 200ZM248 -230 165 -202L209 -51L303 -83Z" glyph-name="Ccedilla" horiz-adv-x="410" unicode="Ç" /><glyph d="M35 200 35 312Q35 405 94.5 464Q154 523 251 523Q288 523 323.5 515.5Q359 508 394 493L354 399Q330 409 304.5 415Q279 421 259 421Q208 421 181.5 393Q155 365 155 312V200Q155 148 185 119.5Q215 91 269 91Q288 91 310 96Q332 101 362 113L401 18Q362 2 330.5 -4.5Q299 -11 263 -11Q158 -11 96.5 45Q35 101 35 200ZM205 562 157 636L307 742L362 656Z" glyph-name="Cacute" horiz-adv-x="410" unicode="Ć" /><glyph d="M35 200 35 312Q35 405 94.5 464Q154 523 251 523Q288 523 323.5 515.5Q359 508 394 493L354 399Q330 409 304.5 415Q279 421 259 421Q208 421 181.5 393Q155 365 155 312V200Q155 148 185 119.5Q215 91 269 91Q288 91 310 96Q332 101 362 113L401 18Q362 2 330.5 -4.5Q299 -11 263 -11Q158 -11 96.5 45Q35 101 35 200ZM156 730 253 680L349 730L390 656L253 574L115 656Z" glyph-name="Ccaron" horiz-adv-x="410" unicode="Č" /><glyph d="M35 200 35 312Q35 405 94.5 464Q154 523 251 523Q288 523 323.5 515.5Q359 508 394 493L354 399Q330 409 304.5 415Q279 421 259 421Q208 421 181.5 393Q155 365 155 312V200Q155 148 185 119.5Q215 91 269 91Q288 91 310 96Q332 101 362 113L401 18Q362 2 330.5 -4.5Q299 -11 263 -11Q158 -11 96.5 45Q35 101 35 200ZM146 574 105 648L243 730L380 648L339 574L243 624Z" glyph-name="Ccircumflex" horiz-adv-x="410" unicode="Ĉ" /><glyph d="M35 200 35 312Q35 405 94.5 464Q154 523 251 523Q288 523 323.5 515.5Q359 508 394 493L354 399Q330 409 304.5 415Q279 421 259 421Q208 421 181.5 393Q155 365 155 312V200Q155 148 185 119.5Q215 91 269 91Q288 91 310 96Q332 101 362 113L401 18Q362 2 330.5 -4.5Q299 -11 263 -11Q158 -11 96.5 45Q35 101 35 200ZM251 563 162 652L251 741L340 652Z" glyph-name="Cdotaccent" horiz-adv-x="410" unicode="Ċ" /><glyph d="M57 0 57 512H240Q344 512 402 457Q460 402 460 305V207Q460 111 400.5 55.5Q341 0 236 0ZM340 207 340 305Q340 359 313.5 387Q287 415 236 415H177V97H236Q287 97 313.5 125Q340 153 340 207ZM144 730 241 680L337 730L378 656L241 574L103 656Z" glyph-name="Dcaron" horiz-adv-x="495" unicode="Ď" /><glyph d="M57 301 57 512H240Q344 512 402 457Q460 402 460 305V207Q460 111 400.5 55.5Q341 0 236 0H57V216H0V301ZM340 207 340 305Q340 359 313.5 387Q287 415 236 415H177V301H265V216H177V97H236Q287 97 313.5 125Q340 153 340 207Z" glyph-name="Dcroat" horiz-adv-x="495" unicode="Đ" /><glyph d="M57 0 57 512H389V415H177V307H365V210H177V97H396V0ZM173 562 125 636L275 742L330 656Z" glyph-name="Eacute" horiz-adv-x="430" unicode="É" /><glyph d="M57 0 57 512H389V415H177V307H365V210H177V97H396V0ZM124 574 83 648L221 730L358 648L317 574L221 624Z" glyph-name="Ecircumflex" horiz-adv-x="430" unicode="Ê" /><glyph d="M57 0 57 512H389V415H177V307H365V210H177V97H396V0ZM318 572 237 652L318 732L398 652ZM124 572 43 652L124 732L204 652Z" glyph-name="Edieresis" horiz-adv-x="430" unicode="Ë" /><glyph d="M57 0 57 512H389V415H177V307H365V210H177V97H396V0ZM275 562 118 656L173 742L323 636Z" glyph-name="Egrave" horiz-adv-x="430" unicode="È" /><glyph d="M57 0 57 512H389V415H177V307H365V210H177V97H396V0ZM232 671Q250 671 260 683.5Q270 696 271 721H352Q353 659 320 621.5Q287 584 232 584Q178 584 145 621.5Q112 659 111 721H193Q194 696 204 683.5Q214 671 232 671Z" glyph-name="Ebreve" horiz-adv-x="430" unicode="Ĕ" /><glyph d="M57 0 57 512H389V415H177V307H365V210H177V97H396V0ZM124 730 221 680L317 730L358 656L221 574L83 656Z" glyph-name="Ecaron" horiz-adv-x="430" unicode="Ě" /><glyph d="M57 0 57 512H389V415H177V307H365V210H177V97H396V0ZM219 563 130 652L219 741L308 652Z" glyph-name="Edotaccent" horiz-adv-x="430" unicode="Ė" /><glyph d="M57 0 57 512H389V415H177V307H365V210H177V97H396V0ZM114 596 114 686H327V596Z" glyph-name="Emacron" horiz-adv-x="430" unicode="Ē" /><glyph d="M259 -104Q259 -82 272.5 -53Q286 -24 307 0H57V512H389V415H177V307H365V210H177V97H396V0Q370 -28 360.5 -45Q351 -62 351 -76Q351 -91 361 -98Q371 -105 392 -105V-191Q323 -191 291 -170Q259 -149 259 -104Z" glyph-name="Eogonek" horiz-adv-x="430" unicode="Ę" /><glyph d="M35 200 35 312Q35 407 97 465Q159 523 263 523Q301 523 338 515.5Q375 508 408 493L368 399Q338 411 314 416Q290 421 266 421Q212 421 182 392Q152 363 152 312V200Q152 148 183 119Q214 90 269 90Q282 90 294.5 91Q307 92 320 95V196H250V290H427V28Q396 9 354 -1Q312 -11 263 -11Q158 -11 96.5 45Q35 101 35 200ZM257 671Q275 671 285 683.5Q295 696 296 721H377Q378 659 345 621.5Q312 584 257 584Q203 584 170 621.5Q137 659 136 721H218Q219 696 229 683.5Q239 671 257 671Z" glyph-name="Gbreve" horiz-adv-x="475" unicode="Ğ" /><glyph d="M35 200 35 312Q35 407 97 465Q159 523 263 523Q301 523 338 515.5Q375 508 408 493L368 399Q338 411 314 416Q290 421 266 421Q212 421 182 392Q152 363 152 312V200Q152 148 183 119Q214 90 269 90Q282 90 294.5 91Q307 92 320 95V196H250V290H427V28Q396 9 354 -1Q312 -11 263 -11Q158 -11 96.5 45Q35 101 35 200ZM146 574 105 648L243 730L380 648L339 574L243 624Z" glyph-name="Gcircumflex" horiz-adv-x="475" unicode="Ĝ" /><glyph d="M35 200 35 312Q35 407 97 465Q159 523 263 523Q301 523 338 515.5Q375 508 408 493L368 399Q338 411 314 416Q290 421 266 421Q212 421 182 392Q152 363 152 312V200Q152 148 183 119Q214 90 269 90Q282 90 294.5 91Q307 92 320 95V196H250V290H427V28Q396 9 354 -1Q312 -11 263 -11Q158 -11 96.5 45Q35 101 35 200ZM248 -230 165 -202L209 -51L303 -83Z" glyph-name="Gcommaaccent" horiz-adv-x="475" unicode="Ģ" /><glyph d="M35 200 35 312Q35 407 97 465Q159 523 263 523Q301 523 338 515.5Q375 508 408 493L368 399Q338 411 314 416Q290 421 266 421Q212 421 182 392Q152 363 152 312V200Q152 148 183 119Q214 90 269 90Q282 90 294.5 91Q307 92 320 95V196H250V290H427V28Q396 9 354 -1Q312 -11 263 -11Q158 -11 96.5 45Q35 101 35 200ZM262 563 173 652L262 741L351 652Z" glyph-name="Gdotaccent" horiz-adv-x="475" unicode="Ġ" /><glyph d="M200 307 378 307V365H200ZM378 450 378 512H498V450H555V365H498V0H378V207H200V0H80V365H23V450H80V512H200V450Z" glyph-name="Hbar" horiz-adv-x="578" unicode="Ħ" /><glyph d="M355 307 355 512H475V0H355V207H177V0H57V512H177V307ZM169 574 128 648L266 730L403 648L362 574L266 624Z" glyph-name="Hcircumflex" horiz-adv-x="532" unicode="Ĥ" /><glyph d="M57 0 57 512H177V0ZM70 562 22 636L172 742L227 656Z" glyph-name="Iacute" horiz-adv-x="234" unicode="Í" /><glyph d="M57 0 57 512H177V0ZM21 574 -20 648L118 730L255 648L214 574L118 624Z" glyph-name="Icircumflex" horiz-adv-x="234" unicode="Î" /><glyph d="M57 0 57 512H177V0ZM215 572 134 652L215 732L295 652ZM21 572 -60 652L21 732L101 652Z" glyph-name="Idieresis" horiz-adv-x="234" unicode="Ï" /><glyph d="M57 0 57 512H177V0ZM172 562 15 656L70 742L220 636Z" glyph-name="Igrave" horiz-adv-x="234" unicode="Ì" /><glyph d="M57 0 57 512H177V0ZM118 671Q136 671 146 683.5Q156 696 157 721H238Q239 659 206 621.5Q173 584 118 584Q64 584 31 621.5Q-2 659 -3 721H79Q80 696 90 683.5Q100 671 118 671Z" glyph-name="Ibreve" horiz-adv-x="234" unicode="Ĭ" /><glyph d="M57 0 57 512H177V0ZM117 563 28 652L117 741L206 652Z" glyph-name="Idotaccent" horiz-adv-x="234" unicode="İ" /><glyph d="M57 0 57 512H177V0ZM11 596 11 686H224V596Z" glyph-name="Imacron" horiz-adv-x="234" unicode="Ī" /><glyph d="M40 -104Q40 -82 53.5 -53Q67 -24 88 0H57V512H177V0Q151 -28 141.5 -45Q132 -62 132 -76Q132 -91 142 -98Q152 -105 173 -105V-191Q104 -191 72 -170Q40 -149 40 -104Z" glyph-name="Iogonek" horiz-adv-x="234" unicode="Į" /><glyph d="M57 0 57 512H177V0ZM151 681Q161 681 166 689Q171 697 171 713H250Q250 652 230.5 619.5Q211 587 175 587Q164 587 152.5 590.5Q141 594 120 604Q104 612 97 614.5Q90 617 84 617Q74 617 69 609Q64 601 64 585H-15Q-15 646 4.5 678.5Q24 711 60 711Q71 711 82.5 707.5Q94 704 115 694Q131 686 138 683.5Q145 681 151 681Z" glyph-name="Itilde" horiz-adv-x="234" unicode="Ĩ" /><glyph d="M175 184 175 512H295V197Q295 90 249 39.5Q203 -11 107 -11Q79 -11 51.5 -6Q24 -1 -5 9L32 108Q51 101 66.5 98.5Q82 96 99 96Q139 96 157 117.5Q175 139 175 184ZM139 574 98 648L236 730L373 648L332 574L236 624Z" glyph-name="Jcircumflex" horiz-adv-x="340" unicode="Ĵ" /><glyph d="M57 0 57 512H177V0ZM409 184 409 512H529V197Q529 90 483 39.5Q437 -11 341 -11Q313 -11 285.5 -6Q258 -1 229 9L266 108Q285 101 300.5 98.5Q316 96 333 96Q373 96 391 117.5Q409 139 409 184Z" glyph-name="IJ" horiz-adv-x="574" unicode="Ĳ" /><glyph d="M177 295 337 512H475L309 297L485 0H349L234 199L177 124V0H57V512H177ZM242 -230 159 -202L203 -51L297 -83Z" glyph-name="Kcommaaccent" horiz-adv-x="472" unicode="Ķ" /><glyph d="M57 0 57 512H177V103H377V0ZM70 562 22 636L172 742L227 656Z" glyph-name="Lacute" horiz-adv-x="397" unicode="Ĺ" /><glyph d="M57 0 57 512H177V103H377V0ZM312 362 230 386Q242 430 252 472Q262 514 270 553L362 532Q351 489 338.5 446.5Q326 404 312 362Z" glyph-name="Lcaron" horiz-adv-x="397" unicode="Ľ" /><glyph d="M57 0 57 512H177V103H377V0ZM211 -230 128 -202L172 -51L266 -83Z" glyph-name="Lcommaaccent" horiz-adv-x="397" unicode="Ļ" /><glyph d="M57 0 57 512H177V103H377V0ZM316 173 235 254L316 335L397 254Z" glyph-name="Ldot" horiz-adv-x="397" unicode="Ŀ" /><glyph d="M359 189 356 512H476V-30Q476 -110 438 -150.5Q400 -191 325 -191Q312 -191 298 -190Q284 -189 269 -186L279 -85Q288 -86 294 -86.5Q300 -87 306 -87Q335 -87 348 -72.5Q361 -58 361 -28V-15L171 331L174 0H57V512H185Z" glyph-name="Eng" horiz-adv-x="533" unicode="Ŋ" /><glyph d="M364 184 361 512H479V0H353L172 332L175 0H57V512H185ZM308 684Q318 684 323 692Q328 700 328 716H407Q407 655 387.5 622.5Q368 590 332 590Q321 590 309.5 593.5Q298 597 277 607Q261 615 254 617.5Q247 620 241 620Q231 620 226 612Q221 604 221 588H142Q142 649 161.5 681.5Q181 714 217 714Q228 714 239.5 710.5Q251 707 272 697Q288 689 295 686.5Q302 684 308 684Z" glyph-name="Ntilde" horiz-adv-x="536" unicode="Ñ" /><glyph d="M364 184 361 512H479V0H353L172 332L175 0H57V512H185ZM228 562 180 636L330 742L385 656Z" glyph-name="Nacute" horiz-adv-x="536" unicode="Ń" /><glyph d="M364 184 361 512H479V0H353L172 332L175 0H57V512H185ZM179 730 276 680L372 730L413 656L276 574L138 656Z" glyph-name="Ncaron" horiz-adv-x="536" unicode="Ň" /><glyph d="M364 184 361 512H479V0H353L172 332L175 0H57V512H185ZM246 -230 163 -202L207 -51L301 -83Z" glyph-name="Ncommaaccent" horiz-adv-x="536" unicode="Ņ" /><glyph d="M35 200 35 312Q35 409 92 466Q149 523 249 523Q349 523 406 466Q463 409 463 312V200Q463 103 406 46Q349 -11 249 -11Q149 -11 92 46Q35 103 35 200ZM343 200 343 312Q343 366 319 394Q295 422 249 422Q203 422 179 394Q155 366 155 312V200Q155 146 179 118.5Q203 91 249 91Q295 91 319 118.5Q343 146 343 200ZM202 558 154 632L304 738L359 652Z" glyph-name="Oacute" horiz-adv-x="498" unicode="Ó" /><glyph d="M35 200 35 312Q35 409 92 466Q149 523 249 523Q349 523 406 466Q463 409 463 312V200Q463 103 406 46Q349 -11 249 -11Q149 -11 92 46Q35 103 35 200ZM343 200 343 312Q343 366 319 394Q295 422 249 422Q203 422 179 394Q155 366 155 312V200Q155 146 179 118.5Q203 91 249 91Q295 91 319 118.5Q343 146 343 200ZM153 570 112 644L250 726L387 644L346 570L250 620Z" glyph-name="Ocircumflex" horiz-adv-x="498" unicode="Ô" /><glyph d="M35 200 35 312Q35 409 92 466Q149 523 249 523Q349 523 406 466Q463 409 463 312V200Q463 103 406 46Q349 -11 249 -11Q149 -11 92 46Q35 103 35 200ZM343 200 343 312Q343 366 319 394Q295 422 249 422Q203 422 179 394Q155 366 155 312V200Q155 146 179 118.5Q203 91 249 91Q295 91 319 118.5Q343 146 343 200ZM347 568 266 648L347 728L427 648ZM153 568 72 648L153 728L233 648Z" glyph-name="Odieresis" horiz-adv-x="498" unicode="Ö" /><glyph d="M35 200 35 312Q35 409 92 466Q149 523 249 523Q349 523 406 466Q463 409 463 312V200Q463 103 406 46Q349 -11 249 -11Q149 -11 92 46Q35 103 35 200ZM343 200 343 312Q343 366 319 394Q295 422 249 422Q203 422 179 394Q155 366 155 312V200Q155 146 179 118.5Q203 91 249 91Q295 91 319 118.5Q343 146 343 200ZM304 558 147 652L202 738L352 632Z" glyph-name="Ograve" horiz-adv-x="498" unicode="Ò" /><glyph d="M35 200 35 312Q35 409 92 466Q149 523 249 523Q349 523 406 466Q463 409 463 312V200Q463 103 406 46Q349 -11 249 -11Q149 -11 92 46Q35 103 35 200ZM343 200 343 312Q343 366 319 394Q295 422 249 422Q203 422 179 394Q155 366 155 312V200Q155 146 179 118.5Q203 91 249 91Q295 91 319 118.5Q343 146 343 200ZM282 680Q292 680 297 688Q302 696 302 712H381Q381 651 361.5 618.5Q342 586 306 586Q295 586 283.5 589.5Q272 593 251 603Q235 611 228 613.5Q221 616 215 616Q205 616 200 608Q195 600 195 584H116Q116 645 135.5 677.5Q155 710 191 710Q202 710 213.5 706.5Q225 703 246 693Q262 685 269 682.5Q276 680 282 680Z" glyph-name="Otilde" horiz-adv-x="498" unicode="Õ" /><glyph d="M35 200 35 312Q35 409 92 466Q149 523 249 523Q349 523 406 466Q463 409 463 312V200Q463 103 406 46Q349 -11 249 -11Q149 -11 92 46Q35 103 35 200ZM343 200 343 312Q343 366 319 394Q295 422 249 422Q203 422 179 394Q155 366 155 312V200Q155 146 179 118.5Q203 91 249 91Q295 91 319 118.5Q343 146 343 200ZM253 671Q271 671 281 683.5Q291 696 292 721H373Q374 659 341 621.5Q308 584 253 584Q199 584 166 621.5Q133 659 132 721H214Q215 696 225 683.5Q235 671 253 671Z" glyph-name="Obreve" horiz-adv-x="498" unicode="Ŏ" /><glyph d="M35 200 35 312Q35 409 92 466Q149 523 249 523Q349 523 406 466Q463 409 463 312V200Q463 103 406 46Q349 -11 249 -11Q149 -11 92 46Q35 103 35 200ZM343 200 343 312Q343 366 319 394Q295 422 249 422Q203 422 179 394Q155 366 155 312V200Q155 146 179 118.5Q203 91 249 91Q295 91 319 118.5Q343 146 343 200ZM312 559 250 616L354 737L426 670ZM139 559 77 617L181 737L253 671Z" glyph-name="Ohungarumlaut" horiz-adv-x="498" unicode="Ő" /><glyph d="M35 200 35 312Q35 409 92 466Q149 523 249 523Q349 523 406 466Q463 409 463 312V200Q463 103 406 46Q349 -11 249 -11Q149 -11 92 46Q35 103 35 200ZM343 200 343 312Q343 366 319 394Q295 422 249 422Q203 422 179 394Q155 366 155 312V200Q155 146 179 118.5Q203 91 249 91Q295 91 319 118.5Q343 146 343 200ZM143 592 143 682H356V592Z" glyph-name="Omacron" horiz-adv-x="498" unicode="Ō" /><glyph d="M57 0 57 512H250Q338 512 390.5 464.5Q443 417 443 345V305Q443 266 425.5 233Q408 200 377 177L461 0H330L269 144Q248 145 229.5 147Q211 149 198 152L216 241Q229 239 238 238.5Q247 238 256 238Q287 238 305 257Q323 276 323 310V345Q323 378 299.5 396.5Q276 415 235 415H177V0ZM194 562 146 636L296 742L351 656Z" glyph-name="Racute" horiz-adv-x="483" unicode="Ŕ" /><glyph d="M57 0 57 512H250Q338 512 390.5 464.5Q443 417 443 345V305Q443 266 425.5 233Q408 200 377 177L461 0H330L269 144Q248 145 229.5 147Q211 149 198 152L216 241Q229 239 238 238.5Q247 238 256 238Q287 238 305 257Q323 276 323 310V345Q323 378 299.5 396.5Q276 415 235 415H177V0ZM145 730 242 680L338 730L379 656L242 574L104 656Z" glyph-name="Rcaron" horiz-adv-x="483" unicode="Ř" /><glyph d="M57 0 57 512H250Q338 512 390.5 464.5Q443 417 443 345V305Q443 266 425.5 233Q408 200 377 177L461 0H330L269 144Q248 145 229.5 147Q211 149 198 152L216 241Q229 239 238 238.5Q247 238 256 238Q287 238 305 257Q323 276 323 310V345Q323 378 299.5 396.5Q276 415 235 415H177V0ZM237 -230 154 -202L198 -51L292 -83Z" glyph-name="Rcommaaccent" horiz-adv-x="483" unicode="Ŗ" /><glyph d="M70 280Q46 301 35 326Q24 351 24 385Q24 445 74.5 484Q125 523 200 523Q241 523 279 514.5Q317 506 369 483L329 389Q288 407 260.5 413.5Q233 420 206 420Q176 420 160.5 410Q145 400 145 380Q145 367 154 357Q163 347 228 310Q277 282 296.5 269Q316 256 330 244Q354 222 365 196.5Q376 171 376 137Q376 68 326.5 28.5Q277 -11 193 -11Q151 -11 110 -2.5Q69 6 16 26L53 125Q108 106 137 99.5Q166 93 193 93Q221 93 238 105Q255 117 255 136Q255 153 239.5 169Q224 185 170 216Q119 245 101 257Q83 269 70 280ZM114 730 211 680L307 730L348 656L211 574L73 656Z" glyph-name="Scaron" horiz-adv-x="397" unicode="Š" /><glyph d="M70 280Q46 301 35 326Q24 351 24 385Q24 445 74.5 484Q125 523 200 523Q241 523 279 514.5Q317 506 369 483L329 389Q288 407 260.5 413.5Q233 420 206 420Q176 420 160.5 410Q145 400 145 380Q145 367 154 357Q163 347 228 310Q277 282 296.5 269Q316 256 330 244Q354 222 365 196.5Q376 171 376 137Q376 68 326.5 28.5Q277 -11 193 -11Q151 -11 110 -2.5Q69 6 16 26L53 125Q108 106 137 99.5Q166 93 193 93Q221 93 238 105Q255 117 255 136Q255 153 239.5 169Q224 185 170 216Q119 245 101 257Q83 269 70 280ZM163 562 115 636L265 742L320 656Z" glyph-name="Sacute" horiz-adv-x="397" unicode="Ś" /><glyph d="M70 280Q46 301 35 326Q24 351 24 385Q24 445 74.5 484Q125 523 200 523Q241 523 279 514.5Q317 506 369 483L329 389Q288 407 260.5 413.5Q233 420 206 420Q176 420 160.5 410Q145 400 145 380Q145 367 154 357Q163 347 228 310Q277 282 296.5 269Q316 256 330 244Q354 222 365 196.5Q376 171 376 137Q376 68 326.5 28.5Q277 -11 193 -11Q151 -11 110 -2.5Q69 6 16 26L53 125Q108 106 137 99.5Q166 93 193 93Q221 93 238 105Q255 117 255 136Q255 153 239.5 169Q224 185 170 216Q119 245 101 257Q83 269 70 280ZM102 574 61 648L199 730L336 648L295 574L199 624Z" glyph-name="Scircumflex" horiz-adv-x="397" unicode="Ŝ" /><glyph d="M70 280Q46 301 35 326Q24 351 24 385Q24 445 74.5 484Q125 523 200 523Q241 523 279 514.5Q317 506 369 483L329 389Q288 407 260.5 413.5Q233 420 206 420Q176 420 160.5 410Q145 400 145 380Q145 367 154 357Q163 347 228 310Q277 282 296.5 269Q316 256 330 244Q354 222 365 196.5Q376 171 376 137Q376 68 326.5 28.5Q277 -11 193 -11Q151 -11 110 -2.5Q69 6 16 26L53 125Q108 106 137 99.5Q166 93 193 93Q221 93 238 105Q255 117 255 136Q255 153 239.5 169Q224 185 170 216Q119 245 101 257Q83 269 70 280ZM196 -230 113 -202L157 -51L251 -83Z" glyph-name="Scedilla" horiz-adv-x="397" unicode="Ş" /><glyph d="M70 280Q46 301 35 326Q24 351 24 385Q24 445 74.5 484Q125 523 200 523Q241 523 279 514.5Q317 506 369 483L329 389Q288 407 260.5 413.5Q233 420 206 420Q176 420 160.5 410Q145 400 145 380Q145 367 154 357Q163 347 228 310Q277 282 296.5 269Q316 256 330 244Q354 222 365 196.5Q376 171 376 137Q376 68 326.5 28.5Q277 -11 193 -11Q151 -11 110 -2.5Q69 6 16 26L53 125Q108 106 137 99.5Q166 93 193 93Q221 93 238 105Q255 117 255 136Q255 153 239.5 169Q224 185 170 216Q119 245 101 257Q83 269 70 280ZM196 -230 113 -202L157 -51L251 -83Z" glyph-name="uni0218" horiz-adv-x="397" unicode="Ș" /><glyph d="M10 415 10 512H396V415H263V357H349V272H263V0H143V272H57V357H143V415Z" glyph-name="Tbar" horiz-adv-x="406" unicode="Ŧ" /><glyph d="M10 415 10 512H396V415H263V0H143V415ZM107 730 204 680L300 730L341 656L204 574L66 656Z" glyph-name="Tcaron" horiz-adv-x="406" unicode="Ť" /><glyph d="M10 415 10 512H396V415H263V0H143V415ZM208 -230 125 -202L169 -51L263 -83Z" glyph-name="uni0162" horiz-adv-x="406" unicode="Ţ" /><glyph d="M10 415 10 512H396V415H263V0H143V415ZM208 -230 125 -202L169 -51L263 -83Z" glyph-name="uni021A" horiz-adv-x="406" unicode="Ț" /><glyph d="M337 205 337 512H457V205Q457 97 405.5 43Q354 -11 251 -11Q147 -11 96 42.5Q45 96 45 205V512H165V205Q165 145 185.5 117.5Q206 90 251 90Q296 90 316.5 117.5Q337 145 337 205ZM204 562 156 636L306 742L361 656Z" glyph-name="Uacute" horiz-adv-x="502" unicode="Ú" /><glyph d="M337 205 337 512H457V205Q457 97 405.5 43Q354 -11 251 -11Q147 -11 96 42.5Q45 96 45 205V512H165V205Q165 145 185.5 117.5Q206 90 251 90Q296 90 316.5 117.5Q337 145 337 205ZM155 574 114 648L252 730L389 648L348 574L252 624Z" glyph-name="Ucircumflex" horiz-adv-x="502" unicode="Û" /><glyph d="M337 205 337 512H457V205Q457 97 405.5 43Q354 -11 251 -11Q147 -11 96 42.5Q45 96 45 205V512H165V205Q165 145 185.5 117.5Q206 90 251 90Q296 90 316.5 117.5Q337 145 337 205ZM349 572 268 652L349 732L429 652ZM155 572 74 652L155 732L235 652Z" glyph-name="Udieresis" horiz-adv-x="502" unicode="Ü" /><glyph d="M337 205 337 512H457V205Q457 97 405.5 43Q354 -11 251 -11Q147 -11 96 42.5Q45 96 45 205V512H165V205Q165 145 185.5 117.5Q206 90 251 90Q296 90 316.5 117.5Q337 145 337 205ZM306 562 149 656L204 742L354 636Z" glyph-name="Ugrave" horiz-adv-x="502" unicode="Ù" /><glyph d="M337 205 337 512H457V205Q457 97 405.5 43Q354 -11 251 -11Q147 -11 96 42.5Q45 96 45 205V512H165V205Q165 145 185.5 117.5Q206 90 251 90Q296 90 316.5 117.5Q337 145 337 205ZM255 671Q273 671 283 683.5Q293 696 294 721H375Q376 659 343 621.5Q310 584 255 584Q201 584 168 621.5Q135 659 134 721H216Q217 696 227 683.5Q237 671 255 671Z" glyph-name="Ubreve" horiz-adv-x="502" unicode="Ŭ" /><glyph d="M337 205 337 512H457V205Q457 97 405.5 43Q354 -11 251 -11Q147 -11 96 42.5Q45 96 45 205V512H165V205Q165 145 185.5 117.5Q206 90 251 90Q296 90 316.5 117.5Q337 145 337 205ZM314 563 252 620L356 741L428 674ZM141 563 79 621L183 741L255 675Z" glyph-name="Uhungarumlaut" horiz-adv-x="502" unicode="Ű" /><glyph d="M337 205 337 512H457V205Q457 97 405.5 43Q354 -11 251 -11Q147 -11 96 42.5Q45 96 45 205V512H165V205Q165 145 185.5 117.5Q206 90 251 90Q296 90 316.5 117.5Q337 145 337 205ZM145 596 145 686H358V596Z" glyph-name="Umacron" horiz-adv-x="502" unicode="Ū" /><glyph d="M329 -105 329 -191Q260 -191 228 -170Q196 -149 196 -104Q196 -85 207 -60Q218 -35 235 -11Q140 -7 92.5 46.5Q45 100 45 205V512H165V205Q165 145 185.5 117.5Q206 90 251 90Q296 90 316.5 117.5Q337 145 337 205V512H457V205Q457 121 426 69.5Q395 18 333 0Q307 -28 297.5 -45Q288 -62 288 -76Q288 -91 298 -98Q308 -105 329 -105Z" glyph-name="Uogonek" horiz-adv-x="502" unicode="Ų" /><glyph d="M337 205 337 512H457V205Q457 97 405.5 43Q354 -11 251 -11Q147 -11 96 42.5Q45 96 45 205V512H165V205Q165 145 185.5 117.5Q206 90 251 90Q296 90 316.5 117.5Q337 145 337 205ZM133 671 133 686Q133 733 165 763Q197 793 251 793Q305 793 337.5 763Q370 733 370 686V671Q370 624 337.5 594Q305 564 251 564Q197 564 165 594Q133 624 133 671ZM291 672 291 684Q291 707 282 717.5Q273 728 252 728Q231 728 221.5 717.5Q212 707 212 684V672Q212 648 221.5 637.5Q231 627 252 627Q273 627 282 637.5Q291 648 291 672Z" glyph-name="Uring" horiz-adv-x="502" unicode="Ů" /><glyph d="M337 205 337 512H457V205Q457 97 405.5 43Q354 -11 251 -11Q147 -11 96 42.5Q45 96 45 205V512H165V205Q165 145 185.5 117.5Q206 90 251 90Q296 90 316.5 117.5Q337 145 337 205ZM285 681Q295 681 300 689Q305 697 305 713H384Q384 652 364.5 619.5Q345 587 309 587Q298 587 286.5 590.5Q275 594 254 604Q238 612 231 614.5Q224 617 218 617Q208 617 203 609Q198 601 198 585H119Q119 646 138.5 678.5Q158 711 194 711Q205 711 216.5 707.5Q228 704 249 694Q265 686 272 683.5Q279 681 285 681Z" glyph-name="Utilde" horiz-adv-x="502" unicode="Ũ" /><glyph d="M518 109 561 512H678L617 0H453L351 246L249 0H85L24 512H141L184 109L294 374H408ZM304 562 256 636L406 742L461 656Z" glyph-name="Wacute" horiz-adv-x="702" unicode="Ẃ" /><glyph d="M518 109 561 512H678L617 0H453L351 246L249 0H85L24 512H141L184 109L294 374H408ZM255 574 214 648L352 730L489 648L448 574L352 624Z" glyph-name="Wcircumflex" horiz-adv-x="702" unicode="Ŵ" /><glyph d="M518 109 561 512H678L617 0H453L351 246L249 0H85L24 512H141L184 109L294 374H408ZM449 572 368 652L449 732L529 652ZM255 572 174 652L255 732L335 652Z" glyph-name="Wdieresis" horiz-adv-x="702" unicode="Ẅ" /><glyph d="M518 109 561 512H678L617 0H453L351 246L249 0H85L24 512H141L184 109L294 374H408ZM406 562 249 656L304 742L454 636Z" glyph-name="Wgrave" horiz-adv-x="702" unicode="Ẁ" /><glyph d="M223 279 329 512H456L283 153V0H163V153L-10 512H117ZM176 562 128 636L278 742L333 656Z" glyph-name="Yacute" horiz-adv-x="446" unicode="Ý" /><glyph d="M223 279 329 512H456L283 153V0H163V153L-10 512H117ZM321 572 240 652L321 732L401 652ZM127 572 46 652L127 732L207 652Z" glyph-name="Ydieresis" horiz-adv-x="446" unicode="Ÿ" /><glyph d="M223 279 329 512H456L283 153V0H163V153L-10 512H117ZM127 574 86 648L224 730L361 648L320 574L224 624Z" glyph-name="Ycircumflex" horiz-adv-x="446" unicode="Ŷ" /><glyph d="M223 279 329 512H456L283 153V0H163V153L-10 512H117ZM278 562 121 656L176 742L326 636Z" glyph-name="Ygrave" horiz-adv-x="446" unicode="Ỳ" /><glyph d="M26 413 26 512H378V413L159 99H381V0H23V99L242 413ZM111 730 208 680L304 730L345 656L208 574L70 656Z" glyph-name="Zcaron" horiz-adv-x="406" unicode="Ž" /><glyph d="M26 413 26 512H378V413L159 99H381V0H23V99L242 413ZM160 562 112 636L262 742L317 656Z" glyph-name="Zacute" horiz-adv-x="406" unicode="Ź" /><glyph d="M26 413 26 512H378V413L159 99H381V0H23V99L242 413ZM206 563 117 652L206 741L295 652Z" glyph-name="Zdotaccent" horiz-adv-x="406" unicode="Ż" /><glyph d="M183 82Q220 82 240.5 105Q261 128 260 170V196Q190 193 164 178Q138 163 138 129Q138 107 150 94.5Q162 82 183 82ZM80 307 45 391Q85 408 124.5 417Q164 426 202 426Q285 426 331.5 385.5Q378 345 378 272V0H289L276 45Q255 18 223.5 3.5Q192 -11 154 -11Q91 -11 55.5 20.5Q20 52 20 109Q20 187 80 226Q140 265 261 267V272Q261 302 243 318Q225 334 190 334Q164 334 137.5 327.5Q111 321 80 307ZM161 465 113 539L263 645L318 559Z" glyph-name="aacute" horiz-adv-x="425" unicode="á" /><glyph d="M183 82Q220 82 240.5 105Q261 128 260 170V196Q190 193 164 178Q138 163 138 129Q138 107 150 94.5Q162 82 183 82ZM80 307 45 391Q85 408 124.5 417Q164 426 202 426Q285 426 331.5 385.5Q378 345 378 272V0H289L276 45Q255 18 223.5 3.5Q192 -11 154 -11Q91 -11 55.5 20.5Q20 52 20 109Q20 187 80 226Q140 265 261 267V272Q261 302 243 318Q225 334 190 334Q164 334 137.5 327.5Q111 321 80 307ZM112 477 71 551L209 633L346 551L305 477L209 527Z" glyph-name="acircumflex" horiz-adv-x="425" unicode="â" /><glyph d="M183 82Q220 82 240.5 105Q261 128 260 170V196Q190 193 164 178Q138 163 138 129Q138 107 150 94.5Q162 82 183 82ZM80 307 45 391Q85 408 124.5 417Q164 426 202 426Q285 426 331.5 385.5Q378 345 378 272V0H289L276 45Q255 18 223.5 3.5Q192 -11 154 -11Q91 -11 55.5 20.5Q20 52 20 109Q20 187 80 226Q140 265 261 267V272Q261 302 243 318Q225 334 190 334Q164 334 137.5 327.5Q111 321 80 307ZM306 475 225 555L306 635L386 555ZM112 475 31 555L112 635L192 555Z" glyph-name="adieresis" horiz-adv-x="425" unicode="ä" /><glyph d="M183 82Q220 82 240.5 105Q261 128 260 170V196Q190 193 164 178Q138 163 138 129Q138 107 150 94.5Q162 82 183 82ZM80 307 45 391Q85 408 124.5 417Q164 426 202 426Q285 426 331.5 385.5Q378 345 378 272V0H289L276 45Q255 18 223.5 3.5Q192 -11 154 -11Q91 -11 55.5 20.5Q20 52 20 109Q20 187 80 226Q140 265 261 267V272Q261 302 243 318Q225 334 190 334Q164 334 137.5 327.5Q111 321 80 307ZM263 465 106 559L161 645L311 539Z" glyph-name="agrave" horiz-adv-x="425" unicode="à" /><glyph d="M183 82Q220 82 240.5 105Q261 128 260 170V196Q190 193 164 178Q138 163 138 129Q138 107 150 94.5Q162 82 183 82ZM80 307 45 391Q85 408 124.5 417Q164 426 202 426Q285 426 331.5 385.5Q378 345 378 272V0H289L276 45Q255 18 223.5 3.5Q192 -11 154 -11Q91 -11 55.5 20.5Q20 52 20 109Q20 187 80 226Q140 265 261 267V272Q261 302 243 318Q225 334 190 334Q164 334 137.5 327.5Q111 321 80 307ZM90 574 90 589Q90 636 122 666Q154 696 208 696Q262 696 294.5 666Q327 636 327 589V574Q327 527 294.5 497Q262 467 208 467Q154 467 122 497Q90 527 90 574ZM248 575 248 587Q248 610 239 620.5Q230 631 209 631Q188 631 178.5 620.5Q169 610 169 587V575Q169 551 178.5 540.5Q188 530 209 530Q230 530 239 540.5Q248 551 248 575Z" glyph-name="aring" horiz-adv-x="425" unicode="å" /><glyph d="M183 82Q220 82 240.5 105Q261 128 260 170V196Q190 193 164 178Q138 163 138 129Q138 107 150 94.5Q162 82 183 82ZM80 307 45 391Q85 408 124.5 417Q164 426 202 426Q285 426 331.5 385.5Q378 345 378 272V0H289L276 45Q255 18 223.5 3.5Q192 -11 154 -11Q91 -11 55.5 20.5Q20 52 20 109Q20 187 80 226Q140 265 261 267V272Q261 302 243 318Q225 334 190 334Q164 334 137.5 327.5Q111 321 80 307ZM241 587Q251 587 256 595Q261 603 261 619H340Q340 558 320.5 525.5Q301 493 265 493Q254 493 242.5 496.5Q231 500 210 510Q194 518 187 520.5Q180 523 174 523Q164 523 159 515Q154 507 154 491H75Q75 552 94.5 584.5Q114 617 150 617Q161 617 172.5 613.5Q184 610 205 600Q221 592 228 589.5Q235 587 241 587Z" glyph-name="atilde" horiz-adv-x="425" unicode="ã" /><glyph d="M183 82Q220 82 240.5 105Q261 128 260 170V196Q190 193 164 178Q138 163 138 129Q138 107 150 94.5Q162 82 183 82ZM80 307 45 391Q85 408 124.5 417Q164 426 202 426Q285 426 331.5 385.5Q378 345 378 272V0H289L276 45Q255 18 223.5 3.5Q192 -11 154 -11Q91 -11 55.5 20.5Q20 52 20 109Q20 187 80 226Q140 265 261 267V272Q261 302 243 318Q225 334 190 334Q164 334 137.5 327.5Q111 321 80 307ZM212 574Q230 574 240 586.5Q250 599 251 624H332Q333 562 300 524.5Q267 487 212 487Q158 487 125 524.5Q92 562 91 624H173Q174 599 184 586.5Q194 574 212 574Z" glyph-name="abreve" horiz-adv-x="425" unicode="ă" /><glyph d="M183 82Q220 82 240.5 105Q261 128 260 170V196Q190 193 164 178Q138 163 138 129Q138 107 150 94.5Q162 82 183 82ZM80 307 45 391Q85 408 124.5 417Q164 426 202 426Q285 426 331.5 385.5Q378 345 378 272V0H289L276 45Q255 18 223.5 3.5Q192 -11 154 -11Q91 -11 55.5 20.5Q20 52 20 109Q20 187 80 226Q140 265 261 267V272Q261 302 243 318Q225 334 190 334Q164 334 137.5 327.5Q111 321 80 307ZM102 499 102 589H315V499Z" glyph-name="amacron" horiz-adv-x="425" unicode="ā" /><glyph d="M241 -104Q241 -82 254.5 -53Q268 -24 289 0L276 45Q255 18 223.5 3.5Q192 -11 154 -11Q91 -11 55.5 20.5Q20 52 20 109Q20 187 80 226Q140 265 261 267V272Q261 302 243 318Q225 334 190 334Q164 334 137.5 327.5Q111 321 80 307L45 391Q85 408 124.5 417Q164 426 202 426Q285 426 331.5 385.5Q378 345 378 272V0Q352 -28 342.5 -45Q333 -62 333 -76Q333 -91 343 -98Q353 -105 374 -105V-191Q305 -191 273 -170Q241 -149 241 -104ZM183 82Q220 82 240.5 105Q261 128 260 170V196Q190 193 164 178Q138 163 138 129Q138 107 150 94.5Q162 82 183 82Z" glyph-name="aogonek" horiz-adv-x="425" unicode="ą" /><glyph d="M37 175 37 240Q37 325 86.5 375.5Q136 426 223 426Q259 426 293 418Q327 410 352 396L311 310Q292 319 271.5 324Q251 329 233 329Q195 329 176 307Q157 285 157 240V175Q157 130 176 108Q195 86 235 86Q251 86 272 91.5Q293 97 319 108L359 21Q326 4 295.5 -3.5Q265 -11 232 -11Q138 -11 87.5 37Q37 85 37 175ZM216 -230 133 -202L177 -51L271 -83Z" glyph-name="ccedilla" horiz-adv-x="371" unicode="ç" /><glyph d="M37 175 37 240Q37 325 86.5 375.5Q136 426 223 426Q259 426 293 418Q327 410 352 396L311 310Q292 319 271.5 324Q251 329 233 329Q195 329 176 307Q157 285 157 240V175Q157 130 176 108Q195 86 235 86Q251 86 272 91.5Q293 97 319 108L359 21Q326 4 295.5 -3.5Q265 -11 232 -11Q138 -11 87.5 37Q37 85 37 175ZM166 465 118 539L268 645L323 559Z" glyph-name="cacute" horiz-adv-x="371" unicode="ć" /><glyph d="M37 175 37 240Q37 325 86.5 375.5Q136 426 223 426Q259 426 293 418Q327 410 352 396L311 310Q292 319 271.5 324Q251 329 233 329Q195 329 176 307Q157 285 157 240V175Q157 130 176 108Q195 86 235 86Q251 86 272 91.5Q293 97 319 108L359 21Q326 4 295.5 -3.5Q265 -11 232 -11Q138 -11 87.5 37Q37 85 37 175ZM117 633 214 583L310 633L351 559L214 477L76 559Z" glyph-name="ccaron" horiz-adv-x="371" unicode="č" /><glyph d="M37 175 37 240Q37 325 86.5 375.5Q136 426 223 426Q259 426 293 418Q327 410 352 396L311 310Q292 319 271.5 324Q251 329 233 329Q195 329 176 307Q157 285 157 240V175Q157 130 176 108Q195 86 235 86Q251 86 272 91.5Q293 97 319 108L359 21Q326 4 295.5 -3.5Q265 -11 232 -11Q138 -11 87.5 37Q37 85 37 175ZM111 477 70 551L208 633L345 551L304 477L208 527Z" glyph-name="ccircumflex" horiz-adv-x="371" unicode="ĉ" /><glyph d="M37 175 37 240Q37 325 86.5 375.5Q136 426 223 426Q259 426 293 418Q327 410 352 396L311 310Q292 319 271.5 324Q251 329 233 329Q195 329 176 307Q157 285 157 240V175Q157 130 176 108Q195 86 235 86Q251 86 272 91.5Q293 97 319 108L359 21Q326 4 295.5 -3.5Q265 -11 232 -11Q138 -11 87.5 37Q37 85 37 175ZM212 466 123 555L212 644L301 555Z" glyph-name="cdotaccent" horiz-adv-x="371" unicode="ċ" /><glyph d="M295 175 295 594H415V0H326L313 45Q291 17 260 3Q229 -11 191 -11Q116 -11 76.5 38Q37 87 37 177V239Q37 320 80 373Q123 426 195 426Q218 426 237 422Q256 418 274 410L256 321Q248 323 239 324Q230 325 223 325Q188 325 172.5 304.5Q157 284 157 239V177Q157 133 172 113Q187 93 221 93Q256 93 275.5 114.5Q295 136 295 175ZM540 446 458 470Q470 514 480 556Q490 598 498 637L590 616Q579 573 566.5 530.5Q554 488 540 446Z" glyph-name="dcaron" horiz-adv-x="472" unicode="ď" /><glyph d="M330 0 317 45Q295 17 264 3Q233 -11 195 -11Q120 -11 80.5 38Q41 87 41 177V239Q41 320 84 373Q127 426 199 426Q222 426 241 422Q260 418 278 410L260 321Q252 323 243 324Q234 325 227 325Q192 325 176.5 304.5Q161 284 161 239V177Q161 133 176 113Q191 93 225 93Q260 93 279.5 114.5Q299 136 299 175V472H191V543H299V594H419V543H476V472H419V0Z" glyph-name="dcroat" horiz-adv-x="475" unicode="đ" /><glyph d="M37 175 37 240Q37 329 86 377.5Q135 426 225 426Q314 426 363.5 376Q413 326 413 235Q413 217 412.5 202.5Q412 188 410 165H156Q156 122 177 101.5Q198 81 242 81Q265 81 296 88Q327 95 349 105L388 21Q353 4 316.5 -3.5Q280 -11 233 -11Q138 -11 87.5 37Q37 85 37 175ZM295 249 295 253Q295 297 277.5 318Q260 339 225 339Q191 339 173.5 317.5Q156 296 156 253V249ZM178 465 130 539L280 645L335 559Z" glyph-name="eacute" horiz-adv-x="443" unicode="é" /><glyph d="M37 175 37 240Q37 329 86 377.5Q135 426 225 426Q314 426 363.5 376Q413 326 413 235Q413 217 412.5 202.5Q412 188 410 165H156Q156 122 177 101.5Q198 81 242 81Q265 81 296 88Q327 95 349 105L388 21Q353 4 316.5 -3.5Q280 -11 233 -11Q138 -11 87.5 37Q37 85 37 175ZM295 249 295 253Q295 297 277.5 318Q260 339 225 339Q191 339 173.5 317.5Q156 296 156 253V249ZM129 477 88 551L226 633L363 551L322 477L226 527Z" glyph-name="ecircumflex" horiz-adv-x="443" unicode="ê" /><glyph d="M37 175 37 240Q37 329 86 377.5Q135 426 225 426Q314 426 363.5 376Q413 326 413 235Q413 217 412.5 202.5Q412 188 410 165H156Q156 122 177 101.5Q198 81 242 81Q265 81 296 88Q327 95 349 105L388 21Q353 4 316.5 -3.5Q280 -11 233 -11Q138 -11 87.5 37Q37 85 37 175ZM295 249 295 253Q295 297 277.5 318Q260 339 225 339Q191 339 173.5 317.5Q156 296 156 253V249ZM323 475 242 555L323 635L403 555ZM129 475 48 555L129 635L209 555Z" glyph-name="edieresis" horiz-adv-x="443" unicode="ë" /><glyph d="M37 175 37 240Q37 329 86 377.5Q135 426 225 426Q314 426 363.5 376Q413 326 413 235Q413 217 412.5 202.5Q412 188 410 165H156Q156 122 177 101.5Q198 81 242 81Q265 81 296 88Q327 95 349 105L388 21Q353 4 316.5 -3.5Q280 -11 233 -11Q138 -11 87.5 37Q37 85 37 175ZM295 249 295 253Q295 297 277.5 318Q260 339 225 339Q191 339 173.5 317.5Q156 296 156 253V249ZM280 465 123 559L178 645L328 539Z" glyph-name="egrave" horiz-adv-x="443" unicode="è" /><glyph d="M37 175 37 240Q37 329 86 377.5Q135 426 225 426Q314 426 363.5 376Q413 326 413 235Q413 217 412.5 202.5Q412 188 410 165H156Q156 122 177 101.5Q198 81 242 81Q265 81 296 88Q327 95 349 105L388 21Q353 4 316.5 -3.5Q280 -11 233 -11Q138 -11 87.5 37Q37 85 37 175ZM295 249 295 253Q295 297 277.5 318Q260 339 225 339Q191 339 173.5 317.5Q156 296 156 253V249ZM228 574Q246 574 256 586.5Q266 599 267 624H348Q349 562 316 524.5Q283 487 228 487Q174 487 141 524.5Q108 562 107 624H189Q190 599 200 586.5Q210 574 228 574Z" glyph-name="ebreve" horiz-adv-x="443" unicode="ĕ" /><glyph d="M37 175 37 240Q37 329 86 377.5Q135 426 225 426Q314 426 363.5 376Q413 326 413 235Q413 217 412.5 202.5Q412 188 410 165H156Q156 122 177 101.5Q198 81 242 81Q265 81 296 88Q327 95 349 105L388 21Q353 4 316.5 -3.5Q280 -11 233 -11Q138 -11 87.5 37Q37 85 37 175ZM295 249 295 253Q295 297 277.5 318Q260 339 225 339Q191 339 173.5 317.5Q156 296 156 253V249ZM129 633 226 583L322 633L363 559L226 477L88 559Z" glyph-name="ecaron" horiz-adv-x="443" unicode="ě" /><glyph d="M37 175 37 240Q37 329 86 377.5Q135 426 225 426Q314 426 363.5 376Q413 326 413 235Q413 217 412.5 202.5Q412 188 410 165H156Q156 122 177 101.5Q198 81 242 81Q265 81 296 88Q327 95 349 105L388 21Q353 4 316.5 -3.5Q280 -11 233 -11Q138 -11 87.5 37Q37 85 37 175ZM295 249 295 253Q295 297 277.5 318Q260 339 225 339Q191 339 173.5 317.5Q156 296 156 253V249ZM224 466 135 555L224 644L313 555Z" glyph-name="edotaccent" horiz-adv-x="443" unicode="ė" /><glyph d="M37 175 37 240Q37 329 86 377.5Q135 426 225 426Q314 426 363.5 376Q413 326 413 235Q413 217 412.5 202.5Q412 188 410 165H156Q156 122 177 101.5Q198 81 242 81Q265 81 296 88Q327 95 349 105L388 21Q353 4 316.5 -3.5Q280 -11 233 -11Q138 -11 87.5 37Q37 85 37 175ZM295 249 295 253Q295 297 277.5 318Q260 339 225 339Q191 339 173.5 317.5Q156 296 156 253V249ZM119 499 119 589H332V499Z" glyph-name="emacron" horiz-adv-x="443" unicode="ē" /><glyph d="M37 175 37 240Q37 329 86 377.5Q135 426 225 426Q314 426 363.5 376Q413 326 413 235V218L411 165H156Q156 122 177 101.5Q198 81 242 81Q265 81 296 88Q327 95 349 105L388 21Q355 -8 338.5 -32.5Q322 -57 322 -76Q322 -91 332 -98Q342 -105 363 -105V-191Q294 -191 262 -170Q230 -149 230 -104Q230 -85 241 -59.5Q252 -34 270 -10Q259 -11 251.5 -11Q244 -11 233 -11Q138 -11 87.5 37Q37 85 37 175ZM295 249 295 253Q295 297 277.5 318Q260 339 225 339Q191 339 173.5 317.5Q156 296 156 253V249Z" glyph-name="eogonek" horiz-adv-x="443" unicode="ę" /><glyph d="M37 165 37 236Q37 321 79.5 373.5Q122 426 196 426Q236 426 265 412Q294 398 313 370L326 415H415V0Q415 -97 363.5 -143.5Q312 -190 208 -190Q174 -190 138.5 -183.5Q103 -177 66 -164L97 -69Q131 -80 155 -85Q179 -90 199 -90Q250 -90 272.5 -70Q295 -50 295 0V240Q295 278 276.5 300Q258 322 227 322Q192 322 174.5 300.5Q157 279 157 236V165Q157 127 171 108.5Q185 90 215 90Q223 90 231 91.5Q239 93 251 96L276 11Q255 -1 234 -6Q213 -11 190 -11Q117 -11 77 36Q37 83 37 165ZM231 574Q249 574 259 586.5Q269 599 270 624H351Q352 562 319 524.5Q286 487 231 487Q177 487 144 524.5Q111 562 110 624H192Q193 599 203 586.5Q213 574 231 574Z" glyph-name="gbreve" horiz-adv-x="472" unicode="ğ" /><glyph d="M37 165 37 236Q37 321 79.5 373.5Q122 426 196 426Q236 426 265 412Q294 398 313 370L326 415H415V0Q415 -97 363.5 -143.5Q312 -190 208 -190Q174 -190 138.5 -183.5Q103 -177 66 -164L97 -69Q131 -80 155 -85Q179 -90 199 -90Q250 -90 272.5 -70Q295 -50 295 0V240Q295 278 276.5 300Q258 322 227 322Q192 322 174.5 300.5Q157 279 157 236V165Q157 127 171 108.5Q185 90 215 90Q223 90 231 91.5Q239 93 251 96L276 11Q255 -1 234 -6Q213 -11 190 -11Q117 -11 77 36Q37 83 37 165ZM138 477 97 551L235 633L372 551L331 477L235 527Z" glyph-name="gcircumflex" horiz-adv-x="472" unicode="ĝ" /><glyph d="M37 165 37 236Q37 321 79.5 373.5Q122 426 196 426Q236 426 265 412Q294 398 313 370L326 415H415V0Q415 -97 363.5 -143.5Q312 -190 208 -190Q174 -190 138.5 -183.5Q103 -177 66 -164L97 -69Q131 -80 155 -85Q179 -90 199 -90Q250 -90 272.5 -70Q295 -50 295 0V240Q295 278 276.5 300Q258 322 227 322Q192 322 174.5 300.5Q157 279 157 236V165Q157 127 171 108.5Q185 90 215 90Q223 90 231 91.5Q239 93 251 96L276 11Q255 -1 234 -6Q213 -11 190 -11Q117 -11 77 36Q37 83 37 165ZM240 635 323 607L279 456L185 488Z" glyph-name="gcommaaccent" horiz-adv-x="472" unicode="ģ" /><glyph d="M37 165 37 236Q37 321 79.5 373.5Q122 426 196 426Q236 426 265 412Q294 398 313 370L326 415H415V0Q415 -97 363.5 -143.5Q312 -190 208 -190Q174 -190 138.5 -183.5Q103 -177 66 -164L97 -69Q131 -80 155 -85Q179 -90 199 -90Q250 -90 272.5 -70Q295 -50 295 0V240Q295 278 276.5 300Q258 322 227 322Q192 322 174.5 300.5Q157 279 157 236V165Q157 127 171 108.5Q185 90 215 90Q223 90 231 91.5Q239 93 251 96L276 11Q255 -1 234 -6Q213 -11 190 -11Q117 -11 77 36Q37 83 37 165ZM226 466 137 555L226 644L315 555Z" glyph-name="gdotaccent" horiz-adv-x="472" unicode="ġ" /><glyph d="M57 543 57 594H177V543H285V472H177V389Q198 407 224 416.5Q250 426 281 426Q356 426 394.5 377.5Q433 329 433 238V0H313V238Q313 282 298.5 302Q284 322 251 322Q216 322 196.5 300.5Q177 279 177 240V0H57V472H-1V543Z" glyph-name="hbar" horiz-adv-x="480" unicode="ħ" /><glyph d="M57 0 57 594H177V389Q198 407 224 416.5Q250 426 281 426Q356 426 394.5 377.5Q433 329 433 238V0H313V238Q313 282 298.5 302Q284 322 251 322Q216 322 196.5 300.5Q177 279 177 240V0ZM114 644 73 718L211 800L348 718L307 644L211 694Z" glyph-name="hcircumflex" horiz-adv-x="480" unicode="ĥ" /><glyph d="M57 0 57 415H177V0ZM70 465 22 539L172 645L227 559Z" glyph-name="iacute" horiz-adv-x="234" unicode="í" /><glyph d="M57 0 57 415H177V0ZM21 477 -20 551L118 633L255 551L214 477L118 527Z" glyph-name="icircumflex" horiz-adv-x="234" unicode="î" /><glyph d="M57 0 57 415H177V0ZM215 475 134 555L215 635L295 555ZM21 475 -60 555L21 635L101 555Z" glyph-name="idieresis" horiz-adv-x="234" unicode="ï" /><glyph d="M57 0 57 415H177V0ZM172 465 15 559L70 645L220 539Z" glyph-name="igrave" horiz-adv-x="234" unicode="ì" /><glyph d="M57 0 57 415H177V0ZM121 574Q139 574 149 586.5Q159 599 160 624H241Q242 562 209 524.5Q176 487 121 487Q67 487 34 524.5Q1 562 0 624H82Q83 599 93 586.5Q103 574 121 574Z" glyph-name="ibreve" horiz-adv-x="234" unicode="ĭ" /><glyph d="M117 463 28 552L117 641L206 552ZM57 0 57 415H177V0Z" glyph-name="i.dot" horiz-adv-x="234" unicode="" /><glyph d="M57 0 57 415H177V0ZM11 499 11 589H224V499Z" glyph-name="imacron" horiz-adv-x="234" unicode="ī" /><glyph d="M117 463 28 552L117 641L206 552ZM40 -104Q40 -82 53.5 -53Q67 -24 88 0H57V415H177V0Q151 -28 141.5 -45Q132 -62 132 -76Q132 -91 142 -98Q152 -105 173 -105V-191Q104 -191 72 -170Q40 -149 40 -104Z" glyph-name="iogonek" horiz-adv-x="234" unicode="į" /><glyph d="M57 0 57 415H177V0ZM151 584Q161 584 166 592Q171 600 171 616H250Q250 555 230.5 522.5Q211 490 175 490Q164 490 152.5 493.5Q141 497 120 507Q104 515 97 517.5Q90 520 84 520Q74 520 69 512Q64 504 64 488H-15Q-15 549 4.5 581.5Q24 614 60 614Q71 614 82.5 610.5Q94 607 115 597Q131 589 138 586.5Q145 584 151 584Z" glyph-name="itilde" horiz-adv-x="234" unicode="ĩ" /><glyph d="M57 -28 57 415H177V-30Q177 -110 139 -150.5Q101 -191 26 -191Q13 -191 -1 -190Q-15 -189 -30 -186L-20 -85Q-11 -86 -5 -86.5Q1 -87 7 -87Q34 -87 45.5 -73Q57 -59 57 -28ZM21 477 -20 551L118 633L255 551L214 477L118 527Z" glyph-name="jcircumflex" horiz-adv-x="234" unicode="ĵ" /><glyph d="M117 463 28 552L117 641L206 552ZM57 0 57 415H177V0ZM351 463 262 552L351 641L440 552ZM291 -28 291 415H411V-30Q411 -110 373 -150.5Q335 -191 260 -191Q247 -191 233 -190Q219 -189 204 -186L214 -85Q223 -86 229 -86.5Q235 -87 241 -87Q268 -87 279.5 -73Q291 -59 291 -28Z" glyph-name="ij" horiz-adv-x="468" unicode="ĳ" /><glyph d="M57 -1 57 594H171V247L299 415H439L295 234L441 0H310L222 142L171 78V-1ZM227 -230 144 -202L188 -51L282 -83Z" glyph-name="kcommaaccent" horiz-adv-x="449" unicode="ķ" /><glyph d="M57 0 57 594H177V0ZM70 645 22 719L172 825L227 739Z" glyph-name="lacute" horiz-adv-x="234" unicode="ĺ" /><glyph d="M57 0 57 594H177V0ZM298 446 216 470Q228 514 238 556Q248 598 256 637L348 616Q337 573 324.5 530.5Q312 488 298 446Z" glyph-name="lcaron" horiz-adv-x="234" unicode="ľ" /><glyph d="M57 0 57 594H177V0ZM122 -230 39 -202L83 -51L177 -83Z" glyph-name="lcommaaccent" horiz-adv-x="234" unicode="ļ" /><glyph d="M57 0 57 594H177V0ZM286 173 205 254L286 335L367 254Z" glyph-name="ldot" horiz-adv-x="336" unicode="ŀ" /><glyph d="M146 415 159 370Q181 398 212 412Q243 426 281 426Q356 426 394.5 377.5Q433 329 433 238V-30Q433 -110 395 -150.5Q357 -191 282 -191Q269 -191 255 -190Q241 -189 226 -186L236 -85Q245 -86 251 -86.5Q257 -87 263 -87Q290 -87 301.5 -73Q313 -59 313 -28V238Q313 282 298.5 302Q284 322 251 322Q216 322 196.5 300.5Q177 279 177 240V0H57V415Z" glyph-name="eng" horiz-adv-x="480" unicode="ŋ" /><glyph d="M146 415 159 370Q181 398 212 412Q243 426 281 426Q356 426 394.5 377.5Q433 329 433 238V0H313V238Q313 282 298.5 302Q284 322 251 322Q216 322 196.5 300.5Q177 279 177 240V0H57V415ZM288 587Q298 587 303 595Q308 603 308 619H387Q387 558 367.5 525.5Q348 493 312 493Q301 493 289.5 496.5Q278 500 257 510Q241 518 234 520.5Q227 523 221 523Q211 523 206 515Q201 507 201 491H122Q122 552 141.5 584.5Q161 617 197 617Q208 617 219.5 613.5Q231 610 252 600Q268 592 275 589.5Q282 587 288 587Z" glyph-name="ntilde" horiz-adv-x="480" unicode="ñ" /><glyph d="M146 415 159 370Q181 398 212 412Q243 426 281 426Q356 426 394.5 377.5Q433 329 433 238V0H313V238Q313 282 298.5 302Q284 322 251 322Q216 322 196.5 300.5Q177 279 177 240V0H57V415ZM208 465 160 539L310 645L365 559Z" glyph-name="nacute" horiz-adv-x="480" unicode="ń" /><glyph d="M146 415 159 370Q181 398 212 412Q243 426 281 426Q356 426 394.5 377.5Q433 329 433 238V0H313V238Q313 282 298.5 302Q284 322 251 322Q216 322 196.5 300.5Q177 279 177 240V0H57V415ZM159 633 256 583L352 633L393 559L256 477L118 559Z" glyph-name="ncaron" horiz-adv-x="480" unicode="ň" /><glyph d="M146 415 159 370Q181 398 212 412Q243 426 281 426Q356 426 394.5 377.5Q433 329 433 238V0H313V238Q313 282 298.5 302Q284 322 251 322Q216 322 196.5 300.5Q177 279 177 240V0H57V415ZM249 -230 166 -202L210 -51L304 -83Z" glyph-name="ncommaaccent" horiz-adv-x="480" unicode="ņ" /><glyph d="M37 175 37 240Q37 329 86 377.5Q135 426 225 426Q315 426 364 377.5Q413 329 413 240V175Q413 86 364 37.5Q315 -11 225 -11Q135 -11 86 37.5Q37 86 37 175ZM294 172 294 243Q294 288 277 309.5Q260 331 225 331Q190 331 173 309.5Q156 288 156 243V172Q156 126 172.5 105Q189 84 225 84Q261 84 277.5 105Q294 126 294 172ZM178 465 130 539L280 645L335 559Z" glyph-name="oacute" horiz-adv-x="450" unicode="ó" /><glyph d="M37 175 37 240Q37 329 86 377.5Q135 426 225 426Q315 426 364 377.5Q413 329 413 240V175Q413 86 364 37.5Q315 -11 225 -11Q135 -11 86 37.5Q37 86 37 175ZM294 172 294 243Q294 288 277 309.5Q260 331 225 331Q190 331 173 309.5Q156 288 156 243V172Q156 126 172.5 105Q189 84 225 84Q261 84 277.5 105Q294 126 294 172ZM129 477 88 551L226 633L363 551L322 477L226 527Z" glyph-name="ocircumflex" horiz-adv-x="450" unicode="ô" /><glyph d="M37 175 37 240Q37 329 86 377.5Q135 426 225 426Q315 426 364 377.5Q413 329 413 240V175Q413 86 364 37.5Q315 -11 225 -11Q135 -11 86 37.5Q37 86 37 175ZM294 172 294 243Q294 288 277 309.5Q260 331 225 331Q190 331 173 309.5Q156 288 156 243V172Q156 126 172.5 105Q189 84 225 84Q261 84 277.5 105Q294 126 294 172ZM323 475 242 555L323 635L403 555ZM129 475 48 555L129 635L209 555Z" glyph-name="odieresis" horiz-adv-x="450" unicode="ö" /><glyph d="M37 175 37 240Q37 329 86 377.5Q135 426 225 426Q315 426 364 377.5Q413 329 413 240V175Q413 86 364 37.5Q315 -11 225 -11Q135 -11 86 37.5Q37 86 37 175ZM294 172 294 243Q294 288 277 309.5Q260 331 225 331Q190 331 173 309.5Q156 288 156 243V172Q156 126 172.5 105Q189 84 225 84Q261 84 277.5 105Q294 126 294 172ZM280 465 123 559L178 645L328 539Z" glyph-name="ograve" horiz-adv-x="450" unicode="ò" /><glyph d="M37 175 37 240Q37 329 86 377.5Q135 426 225 426Q315 426 364 377.5Q413 329 413 240V175Q413 86 364 37.5Q315 -11 225 -11Q135 -11 86 37.5Q37 86 37 175ZM294 172 294 243Q294 288 277 309.5Q260 331 225 331Q190 331 173 309.5Q156 288 156 243V172Q156 126 172.5 105Q189 84 225 84Q261 84 277.5 105Q294 126 294 172ZM258 587Q268 587 273 595Q278 603 278 619H357Q357 558 337.5 525.5Q318 493 282 493Q271 493 259.5 496.5Q248 500 227 510Q211 518 204 520.5Q197 523 191 523Q181 523 176 515Q171 507 171 491H92Q92 552 111.5 584.5Q131 617 167 617Q178 617 189.5 613.5Q201 610 222 600Q238 592 245 589.5Q252 587 258 587Z" glyph-name="otilde" horiz-adv-x="450" unicode="õ" /><glyph d="M37 175 37 240Q37 329 86 377.5Q135 426 225 426Q315 426 364 377.5Q413 329 413 240V175Q413 86 364 37.5Q315 -11 225 -11Q135 -11 86 37.5Q37 86 37 175ZM294 172 294 243Q294 288 277 309.5Q260 331 225 331Q190 331 173 309.5Q156 288 156 243V172Q156 126 172.5 105Q189 84 225 84Q261 84 277.5 105Q294 126 294 172ZM229 574Q247 574 257 586.5Q267 599 268 624H349Q350 562 317 524.5Q284 487 229 487Q175 487 142 524.5Q109 562 108 624H190Q191 599 201 586.5Q211 574 229 574Z" glyph-name="obreve" horiz-adv-x="450" unicode="ŏ" /><glyph d="M37 175 37 240Q37 329 86 377.5Q135 426 225 426Q315 426 364 377.5Q413 329 413 240V175Q413 86 364 37.5Q315 -11 225 -11Q135 -11 86 37.5Q37 86 37 175ZM294 172 294 243Q294 288 277 309.5Q260 331 225 331Q190 331 173 309.5Q156 288 156 243V172Q156 126 172.5 105Q189 84 225 84Q261 84 277.5 105Q294 126 294 172ZM288 466 226 523L330 644L402 577ZM115 466 53 524L157 644L229 578Z" glyph-name="ohungarumlaut" horiz-adv-x="450" unicode="ő" /><glyph d="M37 175 37 240Q37 329 86 377.5Q135 426 225 426Q315 426 364 377.5Q413 329 413 240V175Q413 86 364 37.5Q315 -11 225 -11Q135 -11 86 37.5Q37 86 37 175ZM294 172 294 243Q294 288 277 309.5Q260 331 225 331Q190 331 173 309.5Q156 288 156 243V172Q156 126 172.5 105Q189 84 225 84Q261 84 277.5 105Q294 126 294 172ZM119 499 119 589H332V499Z" glyph-name="omacron" horiz-adv-x="450" unicode="ō" /><glyph d="M146 415 166 348Q186 385 217 404Q248 423 288 423Q299 423 311 421.5Q323 420 336 417L316 301Q303 303 294 304Q285 305 276 305Q230 305 203.5 275Q177 245 177 189V0H57V415ZM149 465 101 539L251 645L306 559Z" glyph-name="racute" horiz-adv-x="337" unicode="ŕ" /><glyph d="M146 415 166 348Q186 385 217 404Q248 423 288 423Q299 423 311 421.5Q323 420 336 417L316 301Q303 303 294 304Q285 305 276 305Q230 305 203.5 275Q177 245 177 189V0H57V415ZM100 633 197 583L293 633L334 559L197 477L59 559Z" glyph-name="rcaron" horiz-adv-x="337" unicode="ř" /><glyph d="M146 415 166 348Q186 385 217 404Q248 423 288 423Q299 423 311 421.5Q323 420 336 417L316 301Q303 303 294 304Q285 305 276 305Q230 305 203.5 275Q177 245 177 189V0H57V415ZM122 -230 39 -202L83 -51L177 -83Z" glyph-name="rcommaaccent" horiz-adv-x="337" unicode="ŗ" /><glyph d="M72 213Q51 230 40.5 251.5Q30 273 30 299Q30 357 74.5 391.5Q119 426 187 426Q227 426 266.5 417Q306 408 338 391L295 301Q267 315 241 322Q215 329 193 329Q171 329 160 322Q149 315 149 302Q149 292 157 285.5Q165 279 213 255Q293 216 316 187.5Q339 159 339 112Q339 55 294.5 22Q250 -11 179 -11Q138 -11 102.5 -5Q67 1 24 17L59 111Q92 98 120.5 92Q149 86 175 86Q197 86 210 94Q223 102 223 115Q223 126 215.5 133.5Q208 141 159 164Q116 184 100 193.5Q84 203 72 213ZM89 633 186 583L282 633L323 559L186 477L48 559Z" glyph-name="scaron" horiz-adv-x="367" unicode="š" /><glyph d="M72 213Q51 230 40.5 251.5Q30 273 30 299Q30 357 74.5 391.5Q119 426 187 426Q227 426 266.5 417Q306 408 338 391L295 301Q267 315 241 322Q215 329 193 329Q171 329 160 322Q149 315 149 302Q149 292 157 285.5Q165 279 213 255Q293 216 316 187.5Q339 159 339 112Q339 55 294.5 22Q250 -11 179 -11Q138 -11 102.5 -5Q67 1 24 17L59 111Q92 98 120.5 92Q149 86 175 86Q197 86 210 94Q223 102 223 115Q223 126 215.5 133.5Q208 141 159 164Q116 184 100 193.5Q84 203 72 213ZM138 465 90 539L240 645L295 559Z" glyph-name="sacute" horiz-adv-x="367" unicode="ś" /><glyph d="M72 213Q51 230 40.5 251.5Q30 273 30 299Q30 357 74.5 391.5Q119 426 187 426Q227 426 266.5 417Q306 408 338 391L295 301Q267 315 241 322Q215 329 193 329Q171 329 160 322Q149 315 149 302Q149 292 157 285.5Q165 279 213 255Q293 216 316 187.5Q339 159 339 112Q339 55 294.5 22Q250 -11 179 -11Q138 -11 102.5 -5Q67 1 24 17L59 111Q92 98 120.5 92Q149 86 175 86Q197 86 210 94Q223 102 223 115Q223 126 215.5 133.5Q208 141 159 164Q116 184 100 193.5Q84 203 72 213ZM87 477 46 551L184 633L321 551L280 477L184 527Z" glyph-name="scircumflex" horiz-adv-x="367" unicode="ŝ" /><glyph d="M72 213Q51 230 40.5 251.5Q30 273 30 299Q30 357 74.5 391.5Q119 426 187 426Q227 426 266.5 417Q306 408 338 391L295 301Q267 315 241 322Q215 329 193 329Q171 329 160 322Q149 315 149 302Q149 292 157 285.5Q165 279 213 255Q293 216 316 187.5Q339 159 339 112Q339 55 294.5 22Q250 -11 179 -11Q138 -11 102.5 -5Q67 1 24 17L59 111Q92 98 120.5 92Q149 86 175 86Q197 86 210 94Q223 102 223 115Q223 126 215.5 133.5Q208 141 159 164Q116 184 100 193.5Q84 203 72 213ZM186 -230 103 -202L147 -51L241 -83Z" glyph-name="scedilla" horiz-adv-x="367" unicode="ş" /><glyph d="M72 213Q51 230 40.5 251.5Q30 273 30 299Q30 357 74.5 391.5Q119 426 187 426Q227 426 266.5 417Q306 408 338 391L295 301Q267 315 241 322Q215 329 193 329Q171 329 160 322Q149 315 149 302Q149 292 157 285.5Q165 279 213 255Q293 216 316 187.5Q339 159 339 112Q339 55 294.5 22Q250 -11 179 -11Q138 -11 102.5 -5Q67 1 24 17L59 111Q92 98 120.5 92Q149 86 175 86Q197 86 210 94Q223 102 223 115Q223 126 215.5 133.5Q208 141 159 164Q116 184 100 193.5Q84 203 72 213ZM186 -230 103 -202L147 -51L241 -83Z" glyph-name="uni0219" horiz-adv-x="367" unicode="ș" /><glyph d="M115 512 206 512V415H280V325H206V267H280V196H206V155Q206 126 217.5 112.5Q229 99 256 99Q264 99 268.5 99Q273 99 278 100L288 -5Q277 -7 266.5 -7.5Q256 -8 246 -8Q169 -8 127.5 34.5Q86 77 86 152V196H12V267H86V325H12V415H32Q75 415 92.5 437.5Q110 460 115 512Z" glyph-name="tbar" horiz-adv-x="314" unicode="ŧ" /><glyph d="M115 512 206 512V415H280V318H206V155Q206 126 217.5 112.5Q229 99 256 99Q264 99 268.5 99Q273 99 278 100L288 -5Q277 -7 266.5 -7.5Q256 -8 246 -8Q169 -8 127.5 34.5Q86 77 86 152V318H12V415H32Q75 415 92.5 437.5Q110 460 115 512ZM327 449 245 473Q257 517 267 559Q277 601 285 640L377 619Q366 576 353.5 533.5Q341 491 327 449Z" glyph-name="tcaron" horiz-adv-x="314" unicode="ť" /><glyph d="M115 512 206 512V415H280V318H206V155Q206 126 217.5 112.5Q229 99 256 99Q264 99 268.5 99Q273 99 278 100L288 -5Q277 -7 266.5 -7.5Q256 -8 246 -8Q169 -8 127.5 34.5Q86 77 86 152V318H12V415H32Q75 415 92.5 437.5Q110 460 115 512ZM190 -230 107 -202L151 -51L245 -83Z" glyph-name="uni0163" horiz-adv-x="314" unicode="ţ" /><glyph d="M115 512 206 512V415H280V318H206V155Q206 126 217.5 112.5Q229 99 256 99Q264 99 268.5 99Q273 99 278 100L288 -5Q277 -7 266.5 -7.5Q256 -8 246 -8Q169 -8 127.5 34.5Q86 77 86 152V318H12V415H32Q75 415 92.5 437.5Q110 460 115 512ZM190 -230 107 -202L151 -51L245 -83Z" glyph-name="uni021B" horiz-adv-x="314" unicode="ț" /><glyph d="M303 175 303 415H423V0H334L321 45Q299 17 268 3Q237 -11 199 -11Q124 -11 85.5 37.5Q47 86 47 177V415H167V177Q167 133 181.5 113Q196 93 229 93Q264 93 283.5 114.5Q303 136 303 175ZM188 465 140 539L290 645L345 559Z" glyph-name="uacute" horiz-adv-x="480" unicode="ú" /><glyph d="M303 175 303 415H423V0H334L321 45Q299 17 268 3Q237 -11 199 -11Q124 -11 85.5 37.5Q47 86 47 177V415H167V177Q167 133 181.5 113Q196 93 229 93Q264 93 283.5 114.5Q303 136 303 175ZM139 477 98 551L236 633L373 551L332 477L236 527Z" glyph-name="ucircumflex" horiz-adv-x="480" unicode="û" /><glyph d="M303 175 303 415H423V0H334L321 45Q299 17 268 3Q237 -11 199 -11Q124 -11 85.5 37.5Q47 86 47 177V415H167V177Q167 133 181.5 113Q196 93 229 93Q264 93 283.5 114.5Q303 136 303 175ZM333 475 252 555L333 635L413 555ZM139 475 58 555L139 635L219 555Z" glyph-name="udieresis" horiz-adv-x="480" unicode="ü" /><glyph d="M303 175 303 415H423V0H334L321 45Q299 17 268 3Q237 -11 199 -11Q124 -11 85.5 37.5Q47 86 47 177V415H167V177Q167 133 181.5 113Q196 93 229 93Q264 93 283.5 114.5Q303 136 303 175ZM290 465 133 559L188 645L338 539Z" glyph-name="ugrave" horiz-adv-x="480" unicode="ù" /><glyph d="M303 175 303 415H423V0H334L321 45Q299 17 268 3Q237 -11 199 -11Q124 -11 85.5 37.5Q47 86 47 177V415H167V177Q167 133 181.5 113Q196 93 229 93Q264 93 283.5 114.5Q303 136 303 175ZM244 574Q262 574 272 586.5Q282 599 283 624H364Q365 562 332 524.5Q299 487 244 487Q190 487 157 524.5Q124 562 123 624H205Q206 599 216 586.5Q226 574 244 574Z" glyph-name="ubreve" horiz-adv-x="480" unicode="ŭ" /><glyph d="M303 175 303 415H423V0H334L321 45Q299 17 268 3Q237 -11 199 -11Q124 -11 85.5 37.5Q47 86 47 177V415H167V177Q167 133 181.5 113Q196 93 229 93Q264 93 283.5 114.5Q303 136 303 175ZM298 466 236 523L340 644L412 577ZM125 466 63 524L167 644L239 578Z" glyph-name="uhungarumlaut" horiz-adv-x="480" unicode="ű" /><glyph d="M303 175 303 415H423V0H334L321 45Q299 17 268 3Q237 -11 199 -11Q124 -11 85.5 37.5Q47 86 47 177V415H167V177Q167 133 181.5 113Q196 93 229 93Q264 93 283.5 114.5Q303 136 303 175ZM129 499 129 589H342V499Z" glyph-name="umacron" horiz-adv-x="480" unicode="ū" /><glyph d="M286 -104Q286 -82 299.5 -53Q313 -24 334 0L321 45Q299 17 268 3Q237 -11 199 -11Q124 -11 85.5 37.5Q47 86 47 177V415H167V177Q167 133 181.5 113Q196 93 229 93Q264 93 283.5 114.5Q303 136 303 175V415H423V0Q397 -28 387.5 -45Q378 -62 378 -76Q378 -91 388 -98Q398 -105 419 -105V-191Q350 -191 318 -170Q286 -149 286 -104Z" glyph-name="uogonek" horiz-adv-x="480" unicode="ų" /><glyph d="M303 175 303 415H423V0H334L321 45Q299 17 268 3Q237 -11 199 -11Q124 -11 85.5 37.5Q47 86 47 177V415H167V177Q167 133 181.5 113Q196 93 229 93Q264 93 283.5 114.5Q303 136 303 175ZM117 574 117 589Q117 636 149 666Q181 696 235 696Q289 696 321.5 666Q354 636 354 589V574Q354 527 321.5 497Q289 467 235 467Q181 467 149 497Q117 527 117 574ZM275 575 275 587Q275 610 266 620.5Q257 631 236 631Q215 631 205.5 620.5Q196 610 196 587V575Q196 551 205.5 540.5Q215 530 236 530Q257 530 266 540.5Q275 551 275 575Z" glyph-name="uring" horiz-adv-x="480" unicode="ů" /><glyph d="M303 175 303 415H423V0H334L321 45Q299 17 268 3Q237 -11 199 -11Q124 -11 85.5 37.5Q47 86 47 177V415H167V177Q167 133 181.5 113Q196 93 229 93Q264 93 283.5 114.5Q303 136 303 175ZM273 584Q283 584 288 592Q293 600 293 616H372Q372 555 352.5 522.5Q333 490 297 490Q286 490 274.5 493.5Q263 497 242 507Q226 515 219 517.5Q212 520 206 520Q196 520 191 512Q186 504 186 488H107Q107 549 126.5 581.5Q146 614 182 614Q193 614 204.5 610.5Q216 607 237 597Q253 589 260 586.5Q267 584 273 584Z" glyph-name="utilde" horiz-adv-x="480" unicode="ũ" /><glyph d="M507 111 570 415H692L598 0H430L361 267L292 0H124L30 415H152L215 111L299 415H423ZM314 465 266 539L416 645L471 559Z" glyph-name="wacute" horiz-adv-x="722" unicode="ẃ" /><glyph d="M507 111 570 415H692L598 0H430L361 267L292 0H124L30 415H152L215 111L299 415H423ZM265 477 224 551L362 633L499 551L458 477L362 527Z" glyph-name="wcircumflex" horiz-adv-x="722" unicode="ŵ" /><glyph d="M507 111 570 415H692L598 0H430L361 267L292 0H124L30 415H152L215 111L299 415H423ZM459 475 378 555L459 635L539 555ZM265 475 184 555L265 635L345 555Z" glyph-name="wdieresis" horiz-adv-x="722" unicode="ẅ" /><glyph d="M507 111 570 415H692L598 0H430L361 267L292 0H124L30 415H152L215 111L299 415H423ZM416 465 259 559L314 645L464 539Z" glyph-name="wgrave" horiz-adv-x="722" unicode="ẁ" /><glyph d="M225 141 318 415H446L275 -41Q249 -111 241.5 -124.5Q234 -138 226 -148Q208 -170 182 -180.5Q156 -191 119 -191Q106 -191 92 -190Q78 -189 63 -186L73 -85Q82 -86 88 -86.5Q94 -87 100 -87Q124 -87 136.5 -77Q149 -67 157 -43L166 -14L4 415H132ZM178 465 130 539L280 645L335 559Z" glyph-name="yacute" horiz-adv-x="450" unicode="ý" /><glyph d="M225 141 318 415H446L275 -41Q249 -111 241.5 -124.5Q234 -138 226 -148Q208 -170 182 -180.5Q156 -191 119 -191Q106 -191 92 -190Q78 -189 63 -186L73 -85Q82 -86 88 -86.5Q94 -87 100 -87Q124 -87 136.5 -77Q149 -67 157 -43L166 -14L4 415H132ZM323 475 242 555L323 635L403 555ZM129 475 48 555L129 635L209 555Z" glyph-name="ydieresis" horiz-adv-x="450" unicode="ÿ" /><glyph d="M225 141 318 415H446L275 -41Q249 -111 241.5 -124.5Q234 -138 226 -148Q208 -170 182 -180.5Q156 -191 119 -191Q106 -191 92 -190Q78 -189 63 -186L73 -85Q82 -86 88 -86.5Q94 -87 100 -87Q124 -87 136.5 -77Q149 -67 157 -43L166 -14L4 415H132ZM129 477 88 551L226 633L363 551L322 477L226 527Z" glyph-name="ycircumflex" horiz-adv-x="450" unicode="ŷ" /><glyph d="M225 141 318 415H446L275 -41Q249 -111 241.5 -124.5Q234 -138 226 -148Q208 -170 182 -180.5Q156 -191 119 -191Q106 -191 92 -190Q78 -189 63 -186L73 -85Q82 -86 88 -86.5Q94 -87 100 -87Q124 -87 136.5 -77Q149 -67 157 -43L166 -14L4 415H132ZM280 465 123 559L178 645L328 539Z" glyph-name="ygrave" horiz-adv-x="450" unicode="ỳ" /><glyph d="M35 317 35 415H352V317L168 98H357V0H30V98L213 317ZM95 633 192 583L288 633L329 559L192 477L54 559Z" glyph-name="zcaron" horiz-adv-x="399" unicode="ž" /><glyph d="M35 317 35 415H352V317L168 98H357V0H30V98L213 317ZM144 465 96 539L246 645L301 559Z" glyph-name="zacute" horiz-adv-x="399" unicode="ź" /><glyph d="M35 317 35 415H352V317L168 98H357V0H30V98L213 317ZM190 466 101 555L190 644L279 555Z" glyph-name="zdotaccent" horiz-adv-x="399" unicode="ż" /><glyph d="M144 465 96 539L246 645L301 559Z" glyph-name="acute" horiz-adv-x="248" unicode="´" /><glyph d="M280 465 123 559L178 645L328 539Z" glyph-name="grave" horiz-adv-x="248" unicode="`" /><glyph d="M129 477 88 551L226 633L363 551L322 477L226 527Z" glyph-name="circumflex" horiz-adv-x="295" unicode="ˆ" /><glyph d="M95 633 192 583L288 633L329 559L192 477L54 559Z" glyph-name="caron" horiz-adv-x="295" unicode="ˇ" /><glyph d="M273 584Q283 584 288 592Q293 600 293 616H372Q372 555 352.5 522.5Q333 490 297 490Q286 490 274.5 493.5Q263 497 242 507Q226 515 219 517.5Q212 520 206 520Q196 520 191 512Q186 504 186 488H107Q107 549 126.5 581.5Q146 614 182 614Q193 614 204.5 610.5Q216 607 237 597Q253 589 260 586.5Q267 584 273 584Z" glyph-name="tilde" horiz-adv-x="295" unicode="˜" /><glyph d="M323 475 242 555L323 635L403 555ZM129 475 48 555L129 635L209 555Z" glyph-name="dieresis" horiz-adv-x="410" unicode="¨" /><glyph d="M117 574 117 589Q117 636 149 666Q181 696 235 696Q289 696 321.5 666Q354 636 354 589V574Q354 527 321.5 497Q289 467 235 467Q181 467 149 497Q117 527 117 574ZM275 575 275 587Q275 610 266 620.5Q257 631 236 631Q215 631 205.5 620.5Q196 610 196 587V575Q196 551 205.5 540.5Q215 530 236 530Q257 530 266 540.5Q275 551 275 575Z" glyph-name="ring" horiz-adv-x="282" unicode="˚" /><glyph d="M186 -230 103 -202L147 -51L241 -83Z" glyph-name="cedilla" horiz-adv-x="177" unicode="¸" /><glyph d="M298 466 236 523L340 644L412 577ZM125 466 63 524L167 644L239 578Z" glyph-name="hungarumlaut" horiz-adv-x="366" unicode="˝" /><glyph d="M244 574Q262 574 272 586.5Q282 599 283 624H364Q365 562 332 524.5Q299 487 244 487Q190 487 157 524.5Q124 562 123 624H205Q206 599 216 586.5Q226 574 244 574Z" glyph-name="breve" horiz-adv-x="280" unicode="˘" /><glyph d="M129 499 129 589H342V499Z" glyph-name="macron" horiz-adv-x="294" unicode="¯" /><glyph d="M190 466 101 555L190 644L279 555Z" glyph-name="dotaccent" horiz-adv-x="218" unicode="˙" /><glyph d="M124 163 31 256L124 350L217 256Z" glyph-name="periodcentered" horiz-adv-x="248" unicode="·" /><glyph d="M67 -104Q67 -82 80.5 -53Q94 -24 115 0H204Q178 -28 168.5 -45Q159 -62 159 -76Q159 -91 169 -98Q179 -105 200 -105V-191Q131 -191 99 -170Q67 -149 67 -104Z" glyph-name="ogonek" horiz-adv-x="212" unicode="˛" /><glyph d="M190 -230 107 -202L151 -51L245 -83Z" glyph-name="commaaccent" horiz-adv-x="177" unicode="" /><glyph d="M240 635 323 607L279 456L185 488Z" glyph-name="revcommaaccent" horiz-adv-x="177" unicode="" /><glyph d="M327 449 245 473Q257 517 267 559Q277 601 285 640L377 619Q366 576 353.5 533.5Q341 491 327 449Z" glyph-name="caron.alt" horiz-adv-x="159" unicode="" /><glyph d="M115 -32 22 61L115 155L208 61Z" glyph-name="period" horiz-adv-x="230" unicode="." /><glyph d="M109 -148 17 -119Q30 -68 44.5 -3.5Q59 61 73 127L191 97Q167 20 146.5 -41Q126 -102 109 -148Z" glyph-name="comma" horiz-adv-x="230" unicode="," /><glyph d="M115 257 22 351L115 444L208 351ZM115 -32 22 61L115 155L208 61Z" glyph-name="colon" horiz-adv-x="230" unicode=":" /><glyph d="M123 257 30 351L123 444L216 351ZM104 -148 12 -119Q25 -68 39.5 -3.5Q54 61 68 127L186 97Q162 20 141.5 -41Q121 -102 104 -148Z" glyph-name="semicolon" horiz-adv-x="230" unicode=";" /><glyph d="M106 -23 22 61L106 147L192 61ZM326 -23 242 61L326 146L411 61ZM546 -23 462 61L546 146L631 61Z" glyph-name="ellipsis" horiz-adv-x="653" unicode="…" /><glyph d="M51 394 10 489Q59 511 97 519.5Q135 528 177 528Q253 528 300 487Q347 446 347 380Q347 332 322.5 289Q298 246 234 191L206 167L136 246L165 271Q199 300 214 324Q229 348 229 373Q229 398 213 412Q197 426 169 426Q142 426 115.5 419Q89 412 51 394ZM176 -32 88 56L176 144L264 56Z" glyph-name="question" horiz-adv-x="380" unicode="?" /><glyph d="M64 194 62 512H186L184 194ZM124 -32 36 56L124 144L212 56Z" glyph-name="exclam" horiz-adv-x="248" unicode="!" /><glyph d="M200 267 112 355L200 443L288 355ZM29 31Q29 79 53.5 122Q78 165 142 220L170 244L240 165L211 140Q177 111 162 87Q147 63 147 38Q147 13 163 -1Q179 -15 207 -15Q234 -15 260.5 -8Q287 -1 325 17L366 -78Q317 -100 279 -108.5Q241 -117 199 -117Q123 -117 76 -76Q29 -35 29 31Z" glyph-name="questiondown" horiz-adv-x="346" unicode="¿" /><glyph d="M124 252 36 340L124 428L212 340ZM62 -116 64 202H184L186 -116Z" glyph-name="exclamdown" horiz-adv-x="248" unicode="¡" /><glyph d="M197 628 229 649L286 555L259 537Q214 506 191 459Q168 412 168 349V157Q168 94 191 47Q214 0 259 -31L286 -49L229 -143L197 -122Q123 -75 86.5 -5.5Q50 64 50 157V349Q50 442 86.5 511.5Q123 581 197 628Z" glyph-name="parenleft" horiz-adv-x="289" unicode="(" /><glyph d="M30 537 3 555L60 649L92 628Q166 581 202.5 511.5Q239 442 239 349V157Q239 64 202.5 -5.5Q166 -75 92 -122L60 -143L3 -49L30 -31Q75 0 98 47Q121 94 121 157V349Q121 412 98 459Q75 506 30 537Z" glyph-name="parenright" horiz-adv-x="289" unicode=")" /><glyph d="M212 -147 20 254L212 656L318 603L151 254L318 -94Z" glyph-name="parenleft.alt" horiz-adv-x="331" unicode="" /><glyph d="M180 254 13 603L119 656L311 254L119 -147L13 -94Z" glyph-name="parenright.alt" horiz-adv-x="331" unicode="" /><glyph d="M272 636 299 636V536H273Q244 536 227.5 520Q211 504 211 476V386Q211 334 195 303.5Q179 273 144 255Q179 236 195 206Q211 176 211 125V34Q211 6 227 -9.5Q243 -25 273 -25H299V-125H272Q185 -125 139 -83Q93 -41 93 38V136Q93 168 75.5 185.5Q58 203 22 208V303Q58 308 75.5 325.5Q93 343 93 375V472Q93 552 139 594Q185 636 272 636Z" glyph-name="braceleft" horiz-adv-x="319" unicode="{" /><glyph d="M20 536 20 636H47Q134 636 180 594Q226 552 226 472V375Q226 343 243.5 325.5Q261 308 297 303V208Q261 203 243.5 185.5Q226 168 226 136V38Q226 -41 180 -83Q134 -125 47 -125H20V-25H46Q76 -25 92 -9.5Q108 6 108 34V125Q108 177 125 207Q142 237 179 255Q142 273 125 303.5Q108 334 108 386V476Q108 504 91.5 520Q75 536 46 536Z" glyph-name="braceright" horiz-adv-x="319" unicode="}" /><glyph d="M315 636 342 636V536H316Q287 536 270.5 520Q254 504 254 476V420Q254 357 213 306Q172 255 57 192L12 284Q54 308 69 318.5Q84 329 95 339Q116 357 126 378Q136 399 136 424V472Q136 552 182 594Q228 636 315 636ZM120 192 218 232Q238 198 246 166Q254 134 254 92V34Q254 6 270 -9.5Q286 -25 316 -25H342V-125H315Q228 -125 182 -83Q136 -41 136 38V92Q136 120 131.5 148Q127 176 120 192Z" glyph-name="braceleft.alt" horiz-adv-x="362" unicode="" /><glyph d="M20 536 20 636H47Q134 636 180 594Q226 552 226 473V419Q226 391 230.5 363Q235 335 242 319L144 279Q124 313 116 345Q108 377 108 419V477Q108 505 92 520.5Q76 536 46 536ZM108 35 108 91Q108 154 149 205Q190 256 305 319L350 227Q308 203 293 192.5Q278 182 267 172Q246 154 236 133Q226 112 226 87V39Q226 -41 180 -83Q134 -125 47 -125H20V-25H46Q75 -25 91.5 -9Q108 7 108 35Z" glyph-name="braceright.alt" horiz-adv-x="362" unicode="" /><glyph d="M57 -125 57 636H275V536H175V-25H275V-125Z" glyph-name="bracketleft" horiz-adv-x="295" unicode="[" /><glyph d="M20 536 20 636H238V-125H20V-25H120V536Z" glyph-name="bracketright" horiz-adv-x="295" unicode="]" /><glyph d="M57 415 57 636H275V536H175V415ZM57 -125 57 96H175V-25H275V-125Z" glyph-name="bracketleft.alt" horiz-adv-x="295" unicode="" /><glyph d="M20 536 20 636H238V415H120V536ZM120 -25 120 96H238V-125H20V-25Z" glyph-name="bracketright.alt" horiz-adv-x="288" unicode="" /><glyph d="M25 -86 193 595H306L138 -86Z" glyph-name="slash" horiz-adv-x="331" unicode="/" /><glyph d="M193 -86 25 595H138L306 -86Z" glyph-name="backslash" horiz-adv-x="331" unicode="\" /><glyph d="M21 -145 21 -50H326V-145Z" glyph-name="underscore" horiz-adv-x="347" unicode="_" /><glyph d="M35 205 35 308H263V205Z" glyph-name="hyphen" horiz-adv-x="298" unicode="-" /><glyph d="" glyph-name="uni00AD" horiz-adv-x="0" unicode="­" /><glyph d="M35 205 35 308H385V205Z" glyph-name="endash" horiz-adv-x="420" unicode="–" /><glyph d="M35 205 35 308H542V205Z" glyph-name="emdash" horiz-adv-x="577" unicode="—" /><glyph d="M57 357 57 595H170V357ZM57 -86 57 152H170V-86Z" glyph-name="brokenbar" horiz-adv-x="227" unicode="¦" /><glyph d="M57 -86 57 594H88V-86Z" glyph-name="bar" horiz-adv-x="145" unicode="|" /><glyph d="M57 -86 57 594H170V-86Z" glyph-name="bar.alt" horiz-adv-x="227" unicode="" /><glyph d="M96 418 7 445Q22 500 33.5 552.5Q45 605 55 657L168 629Q153 577 135.5 525Q118 473 96 418Z" glyph-name="apostrophe" horiz-adv-x="158" unicode="ʼ" /><glyph d="M346 85 225 256L346 426L423 369L346 256L423 142ZM153 85 32 256L153 426L230 369L153 256L230 142Z" glyph-name="guillemotleft" horiz-adv-x="466" unicode="«" /><glyph d="M313 256 236 369L313 426L434 256L313 85L236 142ZM120 256 43 369L120 426L241 256L120 85L43 142Z" glyph-name="guillemotright" horiz-adv-x="466" unicode="»" /><glyph d="M153 85 32 256L153 426L230 369L153 256L230 142Z" glyph-name="guilsinglleft" horiz-adv-x="273" unicode="‹" /><glyph d="M120 256 43 369L120 426L241 256L120 85L43 142Z" glyph-name="guilsinglright" horiz-adv-x="273" unicode="›" /><glyph d="M101 -130 12 -103Q21 -65 31 -21.5Q41 22 60 109L173 81Q152 17 135 -33.5Q118 -84 101 -130Z" glyph-name="quotesinglbase" horiz-adv-x="207" unicode="‚" /><glyph d="M297 -138 202 -110Q211 -75 220.5 -35Q230 5 254 117L375 87Q337 -28 323.5 -66.5Q310 -105 297 -138ZM107 -138 12 -110Q24 -61 36.5 -6.5Q49 48 64 117L185 87Q147 -28 133.5 -66.5Q120 -105 107 -138Z" glyph-name="quotedblbase" horiz-adv-x="409" unicode="„" /><glyph d="M144 381 31 409Q56 486 72 533Q88 580 103 620L192 593Q184 563 176.5 528.5Q169 494 144 381Z" glyph-name="quoteleft" horiz-adv-x="207" unicode="‘" /><glyph d="M322 381 209 409Q230 473 247 523.5Q264 574 281 620L370 593Q361 555 351 511.5Q341 468 322 381ZM144 381 31 409Q53 477 70 526.5Q87 576 104 620L192 593Q183 555 173 511.5Q163 468 144 381Z" glyph-name="quotedblleft" horiz-adv-x="385" unicode="“" /><glyph d="M124 381 35 408Q43 438 50.5 472.5Q58 507 83 620L196 592Q171 515 155 468Q139 421 124 381Z" glyph-name="quoteright" horiz-adv-x="207" unicode="’" /><glyph d="M301 381 213 408Q222 446 232 489.5Q242 533 261 620L374 592Q352 524 335 474.5Q318 425 301 381ZM124 381 35 408Q44 446 54 489.5Q64 533 83 620L196 592Q175 528 158 477.5Q141 427 124 381Z" glyph-name="quotedblright" horiz-adv-x="385" unicode="”" /><glyph d="M124 381 35 408Q43 438 50.5 472.5Q58 507 83 620L196 592Q171 515 155 468Q139 421 124 381Z" glyph-name="quotesingle" horiz-adv-x="207" unicode="'" /><glyph d="M301 381 213 408Q222 446 232 489.5Q242 533 261 620L374 592Q352 524 335 474.5Q318 425 301 381ZM124 381 35 408Q44 446 54 489.5Q64 533 83 620L196 592Q175 528 158 477.5Q141 427 124 381Z" glyph-name="quotedbl" horiz-adv-x="385" unicode="&quot;" /><glyph d="M199 88 31 256L199 425L367 256Z" glyph-name="bullet" horiz-adv-x="398" unicode="•" /><glyph d="M27 231 27 277Q27 341 62 376Q97 411 162 411Q227 411 262 376Q297 341 297 277V231Q297 167 262 132Q227 97 162 97Q97 97 62 132Q27 167 27 231Z" glyph-name="bullet.alt" horiz-adv-x="324" unicode="" /><glyph d="M105 267Q70 287 53.5 313.5Q37 340 37 379Q37 444 89 483.5Q141 523 222 523Q258 523 296 514.5Q334 506 362 493L318 399Q292 411 269 417Q246 423 224 423Q192 423 174.5 409.5Q157 396 157 370Q157 339 176 323Q195 307 235 305L239 224Q196 221 173.5 204.5Q151 188 151 158Q151 125 174.5 107.5Q198 90 242 90Q265 90 283.5 92.5Q302 95 315 100V290H489V193H422V30Q390 11 344 0Q298 -11 246 -11Q144 -11 87.5 32.5Q31 76 31 150Q31 188 49 216.5Q67 245 105 267Z" glyph-name="ampersand" horiz-adv-x="499" unicode="&amp;" /><glyph d="M257 512 564 512V-102H463V415H400V-102H299V415H257Q205 415 183 395Q161 375 161 329V294Q161 256 175 237.5Q189 219 219 219Q227 219 235 220.5Q243 222 255 225L280 140Q259 128 238 123Q217 118 194 118Q121 118 81 165Q41 212 41 294V329Q41 423 93.5 467.5Q146 512 257 512Z" glyph-name="paragraph" horiz-adv-x="621" unicode="¶" /><glyph d="M135 476 135 594H255V476H370V376H255V0H135V376H20V476Z" glyph-name="dagger" horiz-adv-x="390" unicode="†" /><glyph d="M135 476 135 594H255V476H370V376H255V130H370V30H255V-88H135V30H20V130H135V376H20V476Z" glyph-name="daggerdbl" horiz-adv-x="390" unicode="‡" /><glyph d="M279 285Q279 308 257.5 323Q236 338 183 354L168 359Q151 352 144 341.5Q137 331 137 315Q137 292 158.5 277Q180 262 237 245L249 241Q265 248 272 259Q279 270 279 285ZM90 398Q71 414 61.5 434Q52 454 52 479Q52 537 96.5 571.5Q141 606 209 606Q251 606 290.5 597Q330 588 360 571L317 481Q289 495 263 502Q237 509 215 509Q193 509 182 502Q171 495 171 482Q171 470 182.5 461.5Q194 453 237 435Q284 415 303.5 406Q323 397 336 388Q363 371 374.5 350Q386 329 386 299Q386 266 371 242Q356 218 327 203Q346 187 355.5 165Q365 143 365 112Q365 55 320.5 22Q276 -11 205 -11Q164 -11 128.5 -5Q93 1 50 17L85 111Q118 98 146.5 92Q175 86 201 86Q223 86 236 94Q249 102 249 115Q249 130 235.5 140.5Q222 151 183 164Q94 194 62 224.5Q30 255 30 300Q30 334 45 358.5Q60 383 90 398Z" glyph-name="section" horiz-adv-x="416" unicode="§" /><glyph d="M180 606 172 729H278L270 606ZM141 515 24 546L55 647L170 602ZM309 515 280 602L395 647L426 546ZM296 347 229 450L306 507L382 410ZM154 347 68 410L144 507L221 450Z" glyph-name="asterisk" horiz-adv-x="450" unicode="*" /><glyph d="M45 465 45 512H209V465H154V312H100V465ZM357 407 404 512H471V312H417V431L381 354H333L297 431V312H243V512H310Z" glyph-name="trademark" horiz-adv-x="528" unicode="™" /><glyph d="M35 391 35 428Q35 515 90.5 571Q146 627 239 627Q333 627 389 571Q445 515 445 428V391Q445 304 389 248Q333 192 239 192Q146 192 90.5 248Q35 304 35 391ZM390 389 390 429Q390 499 350.5 538.5Q311 578 239 578Q167 578 127.5 538.5Q88 499 88 429V389Q88 319 128 279Q168 239 239 239Q311 239 350.5 279Q390 319 390 389ZM165 312 165 512H245Q282 512 303 493.5Q324 475 324 445V431Q324 413 317.5 399.5Q311 386 299 378L331 312H274L250 366Q244 366 238 366.5Q232 367 227 369L233 410Q237 409 241 408.5Q245 408 248 408Q258 408 264 414.5Q270 421 270 433V441Q270 453 262.5 459Q255 465 239 465H219V312Z" glyph-name="registered" horiz-adv-x="480" unicode="®" /><glyph d="M37 173 37 239Q37 395 136 494.5Q235 594 402 594Q569 594 668.5 494.5Q768 395 768 239V173Q768 18 668.5 -81.5Q569 -181 402 -181Q236 -181 136.5 -81.5Q37 18 37 173ZM671 170 671 241Q671 366 600.5 436.5Q530 507 402 507Q274 507 203.5 436.5Q133 366 133 241V170Q133 45 203.5 -26Q274 -97 402 -97Q530 -97 600.5 -26Q671 45 671 170ZM252 178 252 237Q252 314 297 360Q342 406 421 406Q454 406 484.5 399Q515 392 538 379L501 301Q481 310 463.5 314Q446 318 430 318Q395 318 378 298Q361 278 361 237V178Q361 137 378.5 117Q396 97 432 97Q447 97 466.5 102Q486 107 508 117L544 38Q516 23 488 16Q460 9 429 9Q344 9 298 52.5Q252 96 252 178Z" glyph-name="copyright" horiz-adv-x="805" unicode="©" /><glyph d="M33 173 33 239Q33 399 133 496.5Q233 594 407 594Q581 594 681 500.5Q781 407 781 250V208Q781 114 738.5 62Q696 10 618 10Q580 10 553 26.5Q526 43 512 74Q498 45 463 27Q428 9 387 9Q316 9 277.5 51.5Q239 94 239 169V238Q239 312 278 359Q317 406 382 406Q417 406 442.5 393.5Q468 381 485 355L497 396H576V145Q576 117 588.5 103.5Q601 90 628 90Q658 90 675 121.5Q692 153 692 208V252Q692 375 618.5 441Q545 507 407 507Q271 507 200 438.5Q129 370 129 241V170Q129 34 189 -33Q249 -100 370 -100Q411 -100 447 -92.5Q483 -85 517 -70L556 -144Q513 -163 465.5 -173Q418 -183 370 -183Q211 -183 122 -87.5Q33 8 33 173ZM470 185 470 239Q470 279 455.5 298.5Q441 318 412 318Q379 318 362.5 297.5Q346 277 346 235V166Q346 131 360.5 112.5Q375 94 403 94Q436 94 452.5 116Q469 138 470 185Z" glyph-name="at" horiz-adv-x="803" unicode="@" /><glyph d="M122 308Q142 308 152.5 320.5Q163 333 163 358V371Q126 368 111 360Q96 352 96 334Q96 321 102.5 314.5Q109 308 122 308ZM57 436 32 496Q57 507 83.5 513Q110 519 135 519Q187 519 217.5 492Q248 465 248 420V249H184L175 279Q162 261 142 251.5Q122 242 97 242Q62 242 40 263.5Q18 285 18 321Q18 367 54 391Q90 415 164 418V423Q164 439 155 447Q146 455 128 455Q114 455 96.5 450Q79 445 57 436Z" glyph-name="ordfeminine" horiz-adv-x="285" unicode="ª" /><glyph d="M32 361 32 400Q32 456 64 487.5Q96 519 153 519Q210 519 242 487.5Q274 456 274 400V361Q274 305 242 273.5Q210 242 153 242Q96 242 64 273.5Q32 305 32 361ZM188 359 188 402Q188 428 179.5 439.5Q171 451 153 451Q135 451 126.5 439.5Q118 428 118 402V359Q118 333 126 321.5Q134 310 153 310Q172 310 180 321.5Q188 333 188 359Z" glyph-name="ordmasculine" horiz-adv-x="306" unicode="º" /><glyph d="M248 192 364 192L380 320H264ZM391 415 403 512H512L500 415H583V320H489L473 192H552V97H462L450 0H341L353 97H237L225 0H116L128 97H45V192H139L155 320H76V415H166L178 512H287L275 415Z" glyph-name="numbersign" horiz-adv-x="628" unicode="#" /><glyph d="M15 351 84 351Q95 430 148.5 476.5Q202 523 283 523Q321 523 358.5 514.5Q396 506 424 491L380 397Q358 408 333.5 414.5Q309 421 291 421Q254 421 232 403.5Q210 386 202 351H328V277H198V235H328V161H203Q212 127 237 109Q262 91 300 91Q316 91 337.5 96.5Q359 102 388 113L430 23Q395 5 362 -3Q329 -11 294 -11Q206 -11 150.5 34.5Q95 80 84 161H15V235H81V277H15Z" glyph-name="Euro" horiz-adv-x="439" unicode="€" /><glyph d="M155 519 155 594H248V520Q278 516 306 507.5Q334 499 369 483L329 389Q288 407 260.5 413.5Q233 420 206 420Q176 420 160.5 410Q145 400 145 380Q145 367 154 357Q163 347 228 310Q277 282 296.5 269Q316 256 330 244Q354 222 365 196.5Q376 171 376 137Q376 79 341 41.5Q306 4 243 -7V-85H150V-9Q121 -6 91 1.5Q61 9 16 26L53 125Q108 106 137 99.5Q166 93 193 93Q221 93 238 105Q255 117 255 136Q255 153 239.5 169Q224 185 170 216Q119 245 101 257Q83 269 70 280Q46 301 35 326Q24 351 24 385Q24 434 60 470.5Q96 507 155 519Z" glyph-name="dollar" horiz-adv-x="397" unicode="$" /><glyph d="M223 264 329 512H456L344 279H394V205H308L288 163H394V89H283V0H163V89H52V163H158L138 205H52V279H102L-10 512H117Z" glyph-name="yen" horiz-adv-x="446" unicode="¥" /><glyph d="M81 284 81 312Q81 406 136 464.5Q191 523 283 523Q321 523 358.5 514.5Q396 506 424 491L380 397Q358 408 333.5 414.5Q309 421 291 421Q245 421 221.5 393.5Q198 366 198 312V284H328V193H197Q195 161 186 136.5Q177 112 163 98Q177 98 191.5 97Q206 96 231 93Q249 90 258 89.5Q267 89 274 89Q302 89 325.5 94Q349 99 385 114L420 17Q384 3 345 -4Q306 -11 267 -11Q254 -11 240 -9.5Q226 -8 200 -2Q173 3 157.5 5Q142 7 127 7Q115 7 103 5.5Q91 4 55 -4L24 83Q53 104 65 127.5Q77 151 80 193H15V284Z" glyph-name="sterling" horiz-adv-x="433" unicode="£" /><glyph d="M173 421 173 497H266V423Q290 420 312 413Q334 406 352 396L311 310Q292 319 271.5 324Q251 329 233 329Q195 329 176 307Q157 285 157 240V175Q157 130 176 108Q195 86 235 86Q251 86 272 91.5Q293 97 319 108L359 21Q333 8 311 1Q289 -6 266 -9V-85H173V-5Q107 9 72 55Q37 101 37 175V240Q37 311 73 359.5Q109 408 173 421Z" glyph-name="cent" horiz-adv-x="371" unicode="¢" /><glyph d="M115 284 118 322Q125 412 181.5 467.5Q238 523 327 523Q365 523 402.5 514.5Q440 506 468 491L424 397Q402 408 377.5 414.5Q353 421 335 421Q291 421 265.5 395.5Q240 370 234 322L231 284H364V193H223L207 0Q198 -100 154 -145Q110 -190 26 -190Q-3 -190 -33.5 -185Q-64 -180 -86 -172L-50 -76Q-20 -86 -8 -88Q4 -90 17 -90Q52 -90 69.5 -69.5Q87 -49 91 0L107 193H51V284Z" glyph-name="florin" horiz-adv-x="448" unicode="ƒ" /><glyph d="M247 426Q276 426 302.5 420Q329 414 350 402L397 449L464 383L415 334Q425 315 430 292Q435 269 435 242V223Q435 196 430 173Q425 150 415 131L464 82L397 16L350 63Q329 51 302.5 45Q276 39 247 39Q218 39 191.5 45Q165 51 144 63L97 16L30 82L79 131Q69 150 64 173Q59 196 59 223V242Q59 269 64 292Q69 315 79 334L30 383L97 449L144 402Q165 414 191.5 420Q218 426 247 426ZM321 220 321 245Q321 291 303 312Q285 333 247 333Q209 333 191 312Q173 291 173 245V220Q173 173 190.5 152.5Q208 132 247 132Q286 132 303.5 152.5Q321 173 321 220Z" glyph-name="currency" horiz-adv-x="494" unicode="¤" /><glyph d="M122 308Q142 308 152.5 320.5Q163 333 163 358V371Q126 368 111 360Q96 352 96 334Q96 321 102.5 314.5Q109 308 122 308ZM57 436 32 496Q57 507 83.5 513Q110 519 135 519Q187 519 217.5 492Q248 465 248 420V249H184L175 279Q162 261 142 251.5Q122 242 97 242Q62 242 40 263.5Q18 285 18 321Q18 367 54 391Q90 415 164 418V423Q164 439 155 447Q146 455 128 455Q114 455 96.5 450Q79 445 57 436Z" glyph-name="a.sup" horiz-adv-x="285" unicode="" /><glyph d="M188 361 188 622H274V249H210L201 279Q190 262 170.5 252Q151 242 128 242Q81 242 56.5 273Q32 304 32 362V400Q32 456 59 487.5Q86 519 134 519Q146 519 156.5 517.5Q167 516 177 512L163 445Q159 446 155.5 446.5Q152 447 150 447Q133 447 125.5 436Q118 425 118 400V362Q118 337 125 326.5Q132 316 150 316Q168 316 178 327.5Q188 339 188 361Z" glyph-name="d.sup" horiz-adv-x="319" unicode="" /><glyph d="M32 361 32 400Q32 456 64 487.5Q96 519 153 519Q209 519 241.5 486.5Q274 454 274 397Q274 383 273 368Q272 353 272 351H116Q118 330 131 320Q144 310 171 310Q183 310 199.5 314.5Q216 319 232 326L261 264Q237 252 212.5 247Q188 242 158 242Q98 242 65 273Q32 304 32 361ZM194 405 194 411Q194 435 185 446Q176 457 156 457Q135 457 125.5 446Q116 435 116 411V405Z" glyph-name="e.sup" horiz-adv-x="310" unicode="" /><glyph d="M45 249 45 622H131V496Q144 507 159.5 513Q175 519 192 519Q240 519 264 488.5Q288 458 288 399V249H203V399Q203 425 196 435.5Q189 446 171 446Q151 446 141 434.5Q131 423 131 400V249Z" glyph-name="h.sup" horiz-adv-x="325" unicode="" /><glyph d="M45 249 45 622H131V249Z" glyph-name="l.sup" horiz-adv-x="176" unicode="" /><glyph d="M190 519Q214 519 232 509Q250 499 261 479Q273 499 292.5 509Q312 519 337 519Q384 519 408.5 488Q433 457 433 399V249H347V399Q347 425 340.5 435.5Q334 446 317 446Q300 446 290.5 433.5Q281 421 281 399V249H200V399Q200 425 193 435.5Q186 446 167 446Q150 446 140.5 434Q131 422 131 399V249H45V512H110L119 482Q130 499 149.5 509Q169 519 190 519Z" glyph-name="m.sup" horiz-adv-x="470" unicode="" /><glyph d="M110 512 119 482Q130 499 149.5 509Q169 519 192 519Q240 519 264.5 488.5Q289 458 289 399V249H203V399Q203 425 196 435.5Q189 446 171 446Q151 446 141 434.5Q131 423 131 400V249H45V512Z" glyph-name="n.sup" horiz-adv-x="326" unicode="" /><glyph d="M32 361 32 400Q32 456 64 487.5Q96 519 153 519Q210 519 242 487.5Q274 456 274 400V361Q274 305 242 273.5Q210 242 153 242Q96 242 64 273.5Q32 305 32 361ZM188 359 188 402Q188 428 179.5 439.5Q171 451 153 451Q135 451 126.5 439.5Q118 428 118 402V359Q118 333 126 321.5Q134 310 153 310Q172 310 180 321.5Q188 333 188 359Z" glyph-name="o.sup" horiz-adv-x="306" unicode="" /><glyph d="M108 513 119 474Q131 495 149 506.5Q167 518 189 518Q201 518 209.5 517Q218 516 228 513L214 431Q207 433 199.5 433.5Q192 434 184 434Q158 434 144.5 418Q131 402 131 370V249H45V513Z" glyph-name="r.sup" horiz-adv-x="229" unicode="" /><glyph d="M110 351Q56 376 42 393.5Q28 411 28 436Q28 473 57.5 496Q87 519 130 519Q156 519 183 512Q210 505 230 494L199 428Q175 441 160.5 445.5Q146 450 133 450Q123 450 118 447.5Q113 445 113 439Q113 433 118 429Q123 425 149 412Q200 387 214.5 369.5Q229 352 229 323Q229 286 200 264Q171 242 125 242Q99 242 76.5 246Q54 250 22 262L48 330Q78 318 94.5 314.5Q111 311 126 311Q137 311 142.5 314Q148 317 148 322Q148 329 140.5 334.5Q133 340 110 351Z" glyph-name="s.sup" horiz-adv-x="252" unicode="" /><glyph d="M77 571 144 571V512H189V443H144V348Q144 335 150.5 327.5Q157 320 168 320Q172 320 176.5 320.5Q181 321 186 322L195 246Q187 245 178 244Q169 243 161 243Q112 243 85 270.5Q58 298 58 346V443H12V512H31Q56 512 64.5 525Q73 538 77 571Z" glyph-name="t.sup" horiz-adv-x="224" unicode="" /><glyph d="M194 542 88 606L127 666L228 594ZM32 361 32 400Q32 456 64 487.5Q96 519 153 519Q209 519 241.5 486.5Q274 454 274 397Q274 383 273 368Q272 353 272 351H116Q118 330 131 320Q144 310 171 310Q183 310 199.5 314.5Q216 319 232 326L261 264Q237 252 212.5 247Q188 242 158 242Q98 242 65 273Q32 304 32 361ZM195 405 195 411Q195 435 186 446Q177 457 156 457Q135 457 125.5 446Q116 435 116 411V405Z" glyph-name="egrave.sup" horiz-adv-x="310" unicode="" /><glyph d="M35 195 35 317Q35 418 82 470.5Q129 523 221 523Q313 523 360 470.5Q407 418 407 317V195Q407 94 360 41.5Q313 -11 221 -11Q129 -11 82 41.5Q35 94 35 195ZM287 195 287 317Q287 372 271.5 397Q256 422 221 422Q186 422 170.5 397Q155 372 155 317V195Q155 139 170 115Q185 91 221 91Q257 91 272 115Q287 139 287 195Z" glyph-name="zero" horiz-adv-x="442" unicode="0" /><glyph d="M37 413 210 512H310V100H426V0H74V100H190V380L89 322Z" glyph-name="one" horiz-adv-x="442" unicode="1" /><glyph d="M89 389 48 484Q97 506 135 514.5Q173 523 215 523Q292 523 339.5 482.5Q387 442 387 375Q387 330 366 293Q345 256 272 196Q233 164 211.5 141.5Q190 119 180 99H379V0H43V80Q63 132 96.5 174.5Q130 217 187 265Q188 266 209 283.5Q230 301 240 311Q254 326 260.5 340.5Q267 355 267 372Q267 394 250.5 407.5Q234 421 207 421Q180 421 153.5 414Q127 407 89 389Z" glyph-name="two" horiz-adv-x="442" unicode="2" /><glyph d="M75 389 34 484Q83 506 120.5 514.5Q158 523 198 523Q279 523 326 484.5Q373 446 373 389Q373 354 354.5 325Q336 296 302 276Q349 260 372 228.5Q395 197 395 150Q395 76 342 32.5Q289 -11 196 -11Q162 -11 119 -1Q76 9 33 26L70 125Q126 105 152 99Q178 93 199 93Q237 93 255.5 107Q274 121 274 150Q274 188 245 203.5Q216 219 144 219L139 303Q203 309 228 325Q253 341 253 372Q253 395 237.5 408Q222 421 194 421Q169 421 142.5 414Q116 407 75 389Z" glyph-name="three" horiz-adv-x="442" unicode="3" /><glyph d="M15 192 203 512H362V192H426V94H362V0H248V94H15ZM123 192 248 192V404Z" glyph-name="four" horiz-adv-x="441" unicode="4" /><glyph d="M58 292 80 512H371V412H186L177 325Q186 327 197.5 328Q209 329 222 329Q301 329 346 285.5Q391 242 391 168Q391 87 339 38Q287 -11 194 -11Q160 -11 117 -1Q74 9 33 26L70 125Q123 106 149.5 99.5Q176 93 197 93Q234 93 252.5 111.5Q271 130 271 167Q271 201 250 218.5Q229 236 187 236Q166 236 143.5 232Q121 228 95 220Z" glyph-name="five" horiz-adv-x="442" unicode="5" /><glyph d="M44 173 44 315Q44 413 97.5 468Q151 523 248 523Q280 523 310.5 516.5Q341 510 380 493L339 399Q308 412 289 416.5Q270 421 248 421Q204 421 182.5 395Q161 369 161 315V170Q161 127 177.5 106.5Q194 86 229 86Q259 86 274 103Q289 120 289 155V174Q289 206 276.5 222.5Q264 239 240 239Q233 239 224 237.5Q215 236 205 233L180 318Q201 330 222 335Q243 340 266 340Q328 340 367.5 293Q407 246 407 176V158Q407 81 360 35Q313 -11 229 -11Q139 -11 91.5 37Q44 85 44 173Z" glyph-name="six" horiz-adv-x="442" unicode="6" /><glyph d="M33 412 33 512H407V413Q339 322 292.5 218Q246 114 222 0H102Q126 113 168.5 217Q211 321 271 412Z" glyph-name="seven" horiz-adv-x="442" unicode="7" /><glyph d="M101 278Q76 299 63 324Q50 349 50 377Q50 438 96.5 480.5Q143 523 221 523Q299 523 346 480.5Q393 438 393 377Q393 346 380 318Q367 290 341 264Q372 242 388.5 212.5Q405 183 405 149Q405 79 355 34Q305 -11 221 -11Q137 -11 87 34Q37 79 37 149V150Q37 189 53 221Q69 253 101 278ZM249 306Q265 321 272 337.5Q279 354 279 378Q279 402 263.5 416Q248 430 221 430Q194 430 178.5 416Q163 402 164 378Q165 352 183.5 336.5Q202 321 249 306ZM221 84Q255 84 273 100.5Q291 117 291 148Q291 178 273.5 196.5Q256 215 195 236Q173 221 162 199Q151 177 151 148Q151 117 169 100.5Q187 84 221 84Z" glyph-name="eight" horiz-adv-x="442" unicode="8" /><glyph d="M35 338 35 354Q35 430 82.5 476.5Q130 523 213 523Q302 523 350 472.5Q398 422 398 332V197Q398 99 344.5 44Q291 -11 194 -11Q164 -11 129 -3.5Q94 4 59 17L95 113Q124 101 146 96Q168 91 194 91Q238 91 259.5 117Q281 143 281 197V335Q281 380 264 403Q247 426 213 426Q183 426 168 409Q153 392 153 357V338Q153 307 166 290Q179 273 202 273Q209 273 218 274.5Q227 276 237 279L262 194Q241 182 220 177Q199 172 176 172Q112 172 73.5 218.5Q35 265 35 338Z" glyph-name="nine" horiz-adv-x="442" unicode="9" /><glyph d="M45 195 45 317Q45 419 93 471Q141 523 236 523Q331 523 379 471Q427 419 427 317V195Q427 93 379 41Q331 -11 236 -11Q141 -11 93 41Q45 93 45 195ZM307 195 307 317Q307 373 290.5 397.5Q274 422 236 422Q198 422 181.5 397.5Q165 373 165 317V195Q165 139 181 115Q197 91 236 91Q275 91 291 115Q307 139 307 195Z" glyph-name="zero.plf" horiz-adv-x="472" unicode="" /><glyph d="M0 413 173 512H273V0H153V380L52 322Z" glyph-name="one.plf" horiz-adv-x="333" unicode="" /><glyph d="M74 389 33 484Q82 506 120 514.5Q158 523 200 523Q277 523 324.5 482.5Q372 442 372 375Q372 330 351 293Q330 256 257 196Q218 164 196.5 141.5Q175 119 165 99H364V0H28V80Q48 132 81.5 174.5Q115 217 172 265Q173 266 194 283.5Q215 301 225 311Q239 326 245.5 340.5Q252 355 252 372Q252 394 235.5 407.5Q219 421 192 421Q165 421 138.5 414Q112 407 74 389Z" glyph-name="two.plf" horiz-adv-x="415" unicode="" /><glyph d="M64 389 23 484Q72 506 109.5 514.5Q147 523 187 523Q268 523 315 484.5Q362 446 362 389Q362 354 343.5 325Q325 296 291 276Q338 260 361 228.5Q384 197 384 150Q384 76 331 32.5Q278 -11 185 -11Q151 -11 108 -1Q65 9 22 26L59 125Q115 105 141 99Q167 93 188 93Q226 93 244.5 107Q263 121 263 150Q263 188 234 203.5Q205 219 133 219L128 303Q192 309 217 325Q242 341 242 372Q242 395 226.5 408Q211 421 183 421Q158 421 131.5 414Q105 407 64 389Z" glyph-name="three.plf" horiz-adv-x="421" unicode="" /><glyph d="M23 192 221 512H385V192H454V94H385V0H267V94H23ZM136 192 267 192V404Z" glyph-name="four.plf" horiz-adv-x="479" unicode="" /><glyph d="M48 292 70 512H361V412H176L167 325Q176 327 187.5 328Q199 329 212 329Q291 329 336 285.5Q381 242 381 168Q381 87 329 38Q277 -11 184 -11Q150 -11 107 -1Q64 9 23 26L60 125Q113 106 139.5 99.5Q166 93 187 93Q224 93 242.5 111.5Q261 130 261 167Q261 201 240 218.5Q219 236 177 236Q156 236 133.5 232Q111 228 85 220Z" glyph-name="five.plf" horiz-adv-x="417" unicode="" /><glyph d="M45 173 45 315Q45 413 99 468Q153 523 251 523Q283 523 313.5 516.5Q344 510 383 493L342 399Q311 412 292 416.5Q273 421 251 421Q207 421 185.5 395Q164 369 164 315V170Q164 128 180.5 108Q197 88 232 88Q264 88 279.5 104.5Q295 121 295 155V174Q295 206 282 222.5Q269 239 243 239Q236 239 227 237.5Q218 236 208 233L183 318Q204 330 225 335Q246 340 269 340Q333 340 373 293Q413 246 413 176V158Q413 81 365.5 35Q318 -11 232 -11Q142 -11 93.5 37.5Q45 86 45 173Z" glyph-name="six.plf" horiz-adv-x="446" unicode="" /><glyph d="M14 412 14 512H359V413Q297 336 256 239.5Q215 143 184 0H65Q94 137 132 235Q170 333 223 412Z" glyph-name="seven.plf" horiz-adv-x="370" unicode="" /><glyph d="M106 278Q80 299 67 324Q54 349 54 377Q54 438 101.5 480.5Q149 523 228 523Q307 523 355 480.5Q403 438 403 377Q403 346 390 318Q377 290 350 264Q382 242 399 212.5Q416 183 416 149Q416 79 365 34Q314 -11 228 -11Q142 -11 91 34Q40 79 40 149V150Q40 188 56.5 220Q73 252 106 278ZM257 306Q273 321 280 337.5Q287 354 287 378Q287 403 271.5 416.5Q256 430 228 430Q200 430 184.5 416Q169 402 170 378Q171 351 190 335.5Q209 320 257 306ZM228 84Q262 84 280.5 100.5Q299 117 299 148Q299 178 281 196.5Q263 215 201 236Q179 221 168 199Q157 177 157 148Q157 117 175.5 100.5Q194 84 228 84Z" glyph-name="eight.plf" horiz-adv-x="456" unicode="" /><glyph d="M33 338 33 354Q33 431 80.5 477Q128 523 214 523Q303 523 352 472Q401 421 401 332V197Q401 99 347 44Q293 -11 195 -11Q165 -11 130 -3.5Q95 4 60 17L96 113Q125 101 147 96Q169 91 195 91Q239 91 260.5 117Q282 143 282 197V335Q282 379 265 401.5Q248 424 214 424Q182 424 166.5 407.5Q151 391 151 357V338Q151 306 164 290Q177 274 203 274Q210 274 219 275.5Q228 277 238 280L263 195Q242 183 221 178Q200 173 177 173Q110 173 71.5 218.5Q33 264 33 338Z" glyph-name="nine.plf" horiz-adv-x="446" unicode="" /><glyph d="M35 195 35 317Q35 418 82 470.5Q129 523 221 523Q313 523 360 470.5Q407 418 407 317V195Q407 94 360 41.5Q313 -11 221 -11Q129 -11 82 41.5Q35 94 35 195ZM287 195 287 317Q287 372 271.5 397Q256 422 221 422Q186 422 170.5 397Q155 372 155 317V195Q155 139 170 115Q185 91 221 91Q257 91 272 115Q287 139 287 195Z" glyph-name="zero.tlf" horiz-adv-x="442" unicode="" /><glyph d="M37 413 210 512H310V100H426V0H74V100H190V380L89 322Z" glyph-name="one.tlf" horiz-adv-x="442" unicode="" /><glyph d="M89 389 48 484Q97 506 135 514.5Q173 523 215 523Q292 523 339.5 482.5Q387 442 387 375Q387 330 366 293Q345 256 272 196Q233 164 211.5 141.5Q190 119 180 99H379V0H43V80Q63 132 96.5 174.5Q130 217 187 265Q188 266 209 283.5Q230 301 240 311Q254 326 260.5 340.5Q267 355 267 372Q267 394 250.5 407.5Q234 421 207 421Q180 421 153.5 414Q127 407 89 389Z" glyph-name="two.tlf" horiz-adv-x="442" unicode="" /><glyph d="M75 389 34 484Q83 506 120.5 514.5Q158 523 198 523Q279 523 326 484.5Q373 446 373 389Q373 354 354.5 325Q336 296 302 276Q349 260 372 228.5Q395 197 395 150Q395 76 342 32.5Q289 -11 196 -11Q162 -11 119 -1Q76 9 33 26L70 125Q126 105 152 99Q178 93 199 93Q237 93 255.5 107Q274 121 274 150Q274 188 245 203.5Q216 219 144 219L139 303Q203 309 228 325Q253 341 253 372Q253 395 237.5 408Q222 421 194 421Q169 421 142.5 414Q116 407 75 389Z" glyph-name="three.tlf" horiz-adv-x="442" unicode="" /><glyph d="M15 192 203 512H362V192H426V94H362V0H248V94H15ZM123 192 248 192V404Z" glyph-name="four.tlf" horiz-adv-x="441" unicode="" /><glyph d="M58 292 80 512H371V412H186L177 325Q186 327 197.5 328Q209 329 222 329Q301 329 346 285.5Q391 242 391 168Q391 87 339 38Q287 -11 194 -11Q160 -11 117 -1Q74 9 33 26L70 125Q123 106 149.5 99.5Q176 93 197 93Q234 93 252.5 111.5Q271 130 271 167Q271 201 250 218.5Q229 236 187 236Q166 236 143.5 232Q121 228 95 220Z" glyph-name="five.tlf" horiz-adv-x="442" unicode="" /><glyph d="M44 173 44 315Q44 413 97.5 468Q151 523 248 523Q280 523 310.5 516.5Q341 510 380 493L339 399Q308 412 289 416.5Q270 421 248 421Q204 421 182.5 395Q161 369 161 315V170Q161 127 177.5 106.5Q194 86 229 86Q259 86 274 103Q289 120 289 155V174Q289 206 276.5 222.5Q264 239 240 239Q233 239 224 237.5Q215 236 205 233L180 318Q201 330 222 335Q243 340 266 340Q328 340 367.5 293Q407 246 407 176V158Q407 81 360 35Q313 -11 229 -11Q139 -11 91.5 37Q44 85 44 173Z" glyph-name="six.tlf" horiz-adv-x="442" unicode="" /><glyph d="M33 412 33 512H407V413Q339 322 292.5 218Q246 114 222 0H102Q126 113 168.5 217Q211 321 271 412Z" glyph-name="seven.tlf" horiz-adv-x="442" unicode="" /><glyph d="M101 278Q76 299 63 324Q50 349 50 377Q50 438 96.5 480.5Q143 523 221 523Q299 523 346 480.5Q393 438 393 377Q393 346 380 318Q367 290 341 264Q372 242 388.5 212.5Q405 183 405 149Q405 79 355 34Q305 -11 221 -11Q137 -11 87 34Q37 79 37 149V150Q37 189 53 221Q69 253 101 278ZM249 306Q265 321 272 337.5Q279 354 279 378Q279 402 263.5 416Q248 430 221 430Q194 430 178.5 416Q163 402 164 378Q165 352 183.5 336.5Q202 321 249 306ZM221 84Q255 84 273 100.5Q291 117 291 148Q291 178 273.5 196.5Q256 215 195 236Q173 221 162 199Q151 177 151 148Q151 117 169 100.5Q187 84 221 84Z" glyph-name="eight.tlf" horiz-adv-x="442" unicode="" /><glyph d="M35 338 35 354Q35 430 82.5 476.5Q130 523 213 523Q302 523 350 472.5Q398 422 398 332V197Q398 99 344.5 44Q291 -11 194 -11Q164 -11 129 -3.5Q94 4 59 17L95 113Q124 101 146 96Q168 91 194 91Q238 91 259.5 117Q281 143 281 197V335Q281 380 264 403Q247 426 213 426Q183 426 168 409Q153 392 153 357V338Q153 307 166 290Q179 273 202 273Q209 273 218 274.5Q227 276 237 279L262 194Q241 182 220 177Q199 172 176 172Q112 172 73.5 218.5Q35 265 35 338Z" glyph-name="nine.tlf" horiz-adv-x="442" unicode="" /><glyph d="M40 195 40 220Q40 322 88 374Q136 426 231 426Q326 426 374 374Q422 322 422 220V195Q422 93 374 41Q326 -11 231 -11Q136 -11 88 41Q40 93 40 195ZM302 195 302 220Q302 276 285.5 300.5Q269 325 231 325Q193 325 176.5 300.5Q160 276 160 220V195Q160 139 176 115Q192 91 231 91Q270 91 286 115Q302 139 302 195Z" glyph-name="zero.posf" horiz-adv-x="462" unicode="" /><glyph d="M5 316 178 415H278V0H158V283L57 225Z" glyph-name="one.posf" horiz-adv-x="338" unicode="" /><glyph d="M69 292 28 387Q77 409 114.5 417.5Q152 426 195 426Q270 426 317.5 386.5Q365 347 365 288Q365 242 344 208Q323 174 275 144L193 95H364V0H39V95Q59 112 90 134Q121 156 165 185Q214 218 230 238Q246 258 245 281Q244 302 229 313Q214 324 188 324Q161 324 133.5 317Q106 310 69 292Z" glyph-name="two.posf" horiz-adv-x="408" unicode="" /><glyph d="M64 292 23 387Q72 409 109.5 417.5Q147 426 187 426Q268 426 315 387.5Q362 349 362 292Q362 257 343.5 228Q325 199 291 179Q338 163 361 131.5Q384 100 384 53Q384 -21 331 -64.5Q278 -108 185 -108Q151 -108 108 -98Q65 -88 22 -71L59 28Q115 8 141 2Q167 -4 188 -4Q226 -4 244.5 11.5Q263 27 263 59Q263 97 231 112Q199 127 133 119L124 204Q191 215 216.5 231.5Q242 248 242 278Q242 301 227 312.5Q212 324 183 324Q158 324 131.5 317Q105 310 64 292Z" glyph-name="three.posf" horiz-adv-x="421" unicode="" /><glyph d="M23 98 221 415H385V98H454V0H385V-97H267V0H23ZM136 98 267 98V307Z" glyph-name="four.posf" horiz-adv-x="479" unicode="" /><glyph d="M53 195 75 415H366V315H181L172 228Q181 230 192.5 231Q204 232 217 232Q296 232 341 188.5Q386 145 386 71Q386 -10 334 -59Q282 -108 189 -108Q155 -108 112 -98Q69 -88 28 -71L65 28Q118 9 144.5 2.5Q171 -4 192 -4Q229 -4 247.5 14.5Q266 33 266 70Q266 104 245 121.5Q224 139 182 139Q161 139 138.5 135Q116 131 90 123Z" glyph-name="five.posf" horiz-adv-x="427" unicode="" /><glyph d="M50 173 50 315Q50 413 104 468Q158 523 256 523Q288 523 318.5 516.5Q349 510 388 493L347 399Q316 412 297 416.5Q278 421 256 421Q212 421 190.5 395Q169 369 169 315V170Q169 128 185.5 108Q202 88 237 88Q269 88 284.5 104.5Q300 121 300 155V174Q300 206 287 222.5Q274 239 248 239Q241 239 232 237.5Q223 236 213 233L188 318Q209 330 230 335Q251 340 274 340Q338 340 378 293Q418 246 418 176V158Q418 81 370.5 35Q323 -11 237 -11Q147 -11 98.5 37.5Q50 86 50 173Z" glyph-name="six.posf" horiz-adv-x="451" unicode="" /><glyph d="M14 315 14 415H359V316Q297 239 256 142.5Q215 46 184 -97H65Q94 40 132 138Q170 236 223 315Z" glyph-name="seven.posf" horiz-adv-x="370" unicode="" /><glyph d="M106 278Q80 299 67 324Q54 349 54 377Q54 438 101.5 480.5Q149 523 228 523Q307 523 355 480.5Q403 438 403 377Q403 346 390 318Q377 290 350 264Q382 242 399 212.5Q416 183 416 149Q416 79 365 34Q314 -11 228 -11Q142 -11 91 34Q40 79 40 149V150Q40 188 56.5 220Q73 252 106 278ZM257 306Q273 321 280 337.5Q287 354 287 378Q287 403 271.5 416.5Q256 430 228 430Q200 430 184.5 416Q169 402 170 378Q171 351 190 335.5Q209 320 257 306ZM228 84Q262 84 280.5 100.5Q299 117 299 148Q299 178 281 196.5Q263 215 201 236Q179 221 168 199Q157 177 157 148Q157 117 175.5 100.5Q194 84 228 84Z" glyph-name="eight.posf" horiz-adv-x="456" unicode="" /><glyph d="M33 241 33 257Q33 334 80.5 380Q128 426 214 426Q303 426 352 375Q401 324 401 235V100Q401 2 347 -53Q293 -108 195 -108Q165 -108 130 -100.5Q95 -93 60 -80L96 16Q125 4 147 -1Q169 -6 195 -6Q239 -6 260.5 20Q282 46 282 100V238Q282 282 265 304.5Q248 327 214 327Q182 327 166.5 310.5Q151 294 151 260V241Q151 209 164 193Q177 177 203 177Q210 177 219 178.5Q228 180 238 183L263 98Q242 86 221 81Q200 76 177 76Q110 76 71.5 121.5Q33 167 33 241Z" glyph-name="nine.posf" horiz-adv-x="451" unicode="" /><glyph d="M35 195 35 220Q35 321 82 373.5Q129 426 221 426Q313 426 360 373.5Q407 321 407 220V195Q407 94 360 41.5Q313 -11 221 -11Q129 -11 82 41.5Q35 94 35 195ZM287 195 287 220Q287 275 271.5 300Q256 325 221 325Q186 325 170.5 300Q155 275 155 220V195Q155 139 170 115Q185 91 221 91Q257 91 272 115Q287 139 287 195Z" glyph-name="zero.tosf" horiz-adv-x="442" unicode="" /><glyph d="M37 316 210 415H310V95H426V0H74V95H190V283L89 225Z" glyph-name="one.tosf" horiz-adv-x="442" unicode="" /><glyph d="M89 292 48 387Q97 409 134.5 417.5Q172 426 215 426Q290 426 337.5 386.5Q385 347 385 288Q385 242 364 208Q343 174 295 144L213 95H384V0H59V95Q79 112 110 134Q141 156 185 185Q234 218 250 238Q266 258 265 281Q264 302 249 313Q234 324 208 324Q181 324 153.5 317Q126 310 89 292Z" glyph-name="two.tosf" horiz-adv-x="442" unicode="" /><glyph d="M75 292 34 387Q83 409 120.5 417.5Q158 426 198 426Q279 426 326 387.5Q373 349 373 292Q373 257 354.5 228Q336 199 302 179Q349 163 372 131.5Q395 100 395 53Q395 -21 342 -64.5Q289 -108 196 -108Q162 -108 119 -98Q76 -88 33 -71L70 28Q126 8 152 2Q178 -4 199 -4Q237 -4 255.5 11.5Q274 27 274 59Q274 97 242 112Q210 127 144 119L135 204Q202 215 227.5 231.5Q253 248 253 278Q253 301 238 312.5Q223 324 194 324Q169 324 142.5 317Q116 310 75 292Z" glyph-name="three.tosf" horiz-adv-x="442" unicode="" /><glyph d="M15 98 203 415H362V98H426V0H362V-97H248V0H15ZM123 98 248 98V307Z" glyph-name="four.tosf" horiz-adv-x="442" unicode="" /><glyph d="M58 195 80 415H371V315H186L177 228Q186 230 197.5 231Q209 232 222 232Q301 232 346 188.5Q391 145 391 71Q391 -10 339 -59Q287 -108 194 -108Q160 -108 117 -98Q74 -88 33 -71L70 28Q123 9 149.5 2.5Q176 -4 197 -4Q234 -4 252.5 14.5Q271 33 271 70Q271 104 250 121.5Q229 139 187 139Q166 139 143.5 135Q121 131 95 123Z" glyph-name="five.tosf" horiz-adv-x="442" unicode="" /><glyph d="M44 173 44 315Q44 413 97.5 468Q151 523 248 523Q280 523 310.5 516.5Q341 510 380 493L339 399Q308 412 289 416.5Q270 421 248 421Q204 421 182.5 395Q161 369 161 315V170Q161 127 177.5 106.5Q194 86 229 86Q259 86 274 103Q289 120 289 155V174Q289 206 276.5 222.5Q264 239 240 239Q233 239 224 237.5Q215 236 205 233L180 318Q201 330 222 335Q243 340 266 340Q328 340 367.5 293Q407 246 407 176V158Q407 81 360 35Q313 -11 229 -11Q139 -11 91.5 37Q44 85 44 173Z" glyph-name="six.tosf" horiz-adv-x="442" unicode="" /><glyph d="M33 315 33 415H407V316Q339 225 292.5 121Q246 17 222 -97H102Q126 16 168.5 120Q211 224 271 315Z" glyph-name="seven.tosf" horiz-adv-x="442" unicode="" /><glyph d="M101 278Q76 299 63 324Q50 349 50 377Q50 438 96.5 480.5Q143 523 221 523Q299 523 346 480.5Q393 438 393 377Q393 346 380 318Q367 290 341 264Q372 242 388.5 212.5Q405 183 405 149Q405 79 355 34Q305 -11 221 -11Q137 -11 87 34Q37 79 37 149V150Q37 189 53 221Q69 253 101 278ZM249 306Q265 321 272 337.5Q279 354 279 378Q279 402 263.5 416Q248 430 221 430Q194 430 178.5 416Q163 402 164 378Q165 352 183.5 336.5Q202 321 249 306ZM221 84Q255 84 273 100.5Q291 117 291 148Q291 178 273.5 196.5Q256 215 195 236Q173 221 162 199Q151 177 151 148Q151 117 169 100.5Q187 84 221 84Z" glyph-name="eight.tosf" horiz-adv-x="442" unicode="" /><glyph d="M35 241 35 257Q35 333 82.5 379.5Q130 426 213 426Q302 426 350 375.5Q398 325 398 235V100Q398 2 344.5 -53Q291 -108 194 -108Q164 -108 129 -100.5Q94 -93 59 -80L95 16Q124 4 146 -1Q168 -6 194 -6Q238 -6 259.5 20Q281 46 281 100V238Q281 283 264 306Q247 329 213 329Q183 329 168 312Q153 295 153 260V241Q153 210 166 193Q179 176 202 176Q209 176 218 177.5Q227 179 237 182L262 97Q241 85 220 80Q199 75 176 75Q112 75 73.5 121.5Q35 168 35 241Z" glyph-name="nine.tosf" horiz-adv-x="442" unicode="" /><glyph d="M49 487 49 501Q49 548 80 577Q111 606 166 606Q221 606 252 577Q283 548 283 501V487Q283 440 252 410.5Q221 381 166 381Q111 381 80 410.5Q49 440 49 487ZM209 489 209 499Q209 518 198 528.5Q187 539 166 539Q145 539 134 528.5Q123 518 123 499V489Q123 469 134 458.5Q145 448 166 448Q187 448 198 458.5Q209 469 209 489Z" glyph-name="degree" horiz-adv-x="332" unicode="°" /><glyph d="M309 -44 239 -3L562 556L632 515ZM70 312 70 386Q70 450 101.5 483.5Q133 517 193 517Q253 517 284.5 483Q316 449 316 386V312Q316 249 284.5 215Q253 181 193 181Q133 181 101.5 214.5Q70 248 70 312ZM229 312 229 386Q229 418 221 431Q213 444 193 444Q173 444 165 431Q157 418 157 386V312Q157 280 164.5 267.5Q172 255 193 255Q214 255 221.5 267.5Q229 280 229 312ZM556 126 556 200Q556 264 587.5 297.5Q619 331 679 331Q739 331 770.5 297Q802 263 802 200V126Q802 63 770.5 29Q739 -5 679 -5Q619 -5 587.5 28.5Q556 62 556 126ZM715 126 715 200Q715 232 707 245Q699 258 679 258Q659 258 651 245Q643 232 643 200V126Q643 94 650.5 81.5Q658 69 679 69Q700 69 707.5 81.5Q715 94 715 126Z" glyph-name="percent" horiz-adv-x="872" unicode="%" /><glyph d="M309 -44 239 -3L562 556L632 515ZM70 312 70 386Q70 450 101.5 483.5Q133 517 193 517Q253 517 284.5 483Q316 449 316 386V312Q316 249 284.5 215Q253 181 193 181Q133 181 101.5 214.5Q70 248 70 312ZM229 312 229 386Q229 418 221 431Q213 444 193 444Q173 444 165 431Q157 418 157 386V312Q157 280 164.5 267.5Q172 255 193 255Q214 255 221.5 267.5Q229 280 229 312ZM556 126 556 200Q556 264 587.5 297.5Q619 331 679 331Q739 331 770.5 297Q802 263 802 200V126Q802 63 770.5 29Q739 -5 679 -5Q619 -5 587.5 28.5Q556 62 556 126ZM863 126 863 200Q863 264 894.5 297.5Q926 331 986 331Q1046 331 1077.5 297Q1109 263 1109 200V126Q1109 63 1077.5 29Q1046 -5 986 -5Q926 -5 894.5 28.5Q863 62 863 126ZM715 126 715 200Q715 232 707 245Q699 258 679 258Q659 258 651 245Q643 232 643 200V126Q643 94 650.5 81.5Q658 69 679 69Q700 69 707.5 81.5Q715 94 715 126ZM1022 126 1022 200Q1022 232 1014 245Q1006 258 986 258Q966 258 958 245Q950 232 950 200V126Q950 94 957.5 81.5Q965 69 986 69Q1007 69 1014.5 81.5Q1022 94 1022 126Z" glyph-name="perthousand" horiz-adv-x="1179" unicode="‰" /><glyph d="M-10 -44 -80 -3L243 556L313 515Z" glyph-name="fraction" horiz-adv-x="233" unicode="⁄" /><glyph d="M-10 -44 -80 -3L243 556L313 515Z" glyph-name="uni2215" horiz-adv-x="233" unicode="∕" /><glyph d="M45 312 45 386Q45 449 76.5 483Q108 517 168 517Q228 517 259.5 483Q291 449 291 386V312Q291 249 259.5 215Q228 181 168 181Q108 181 76.5 215Q45 249 45 312ZM204 312 204 386Q204 418 196 431Q188 444 168 444Q148 444 140 431Q132 418 132 386V312Q132 280 139.5 267.5Q147 255 168 255Q189 255 196.5 267.5Q204 280 204 312Z" glyph-name="zero.numerator" horiz-adv-x="336" unicode="" /><glyph d="M5 448 117 512H186V190H100V415L42 382Z" glyph-name="one.numerator" horiz-adv-x="239" unicode="" /><glyph d="M58 423 29 489Q64 505 88.5 511Q113 517 139 517Q188 517 219 490Q250 463 250 421Q250 393 236.5 369Q223 345 178 308Q152 285 143 276Q134 267 129 260H245V187H28V243Q39 273 59.5 298.5Q80 324 118 357Q151 385 157.5 396Q164 407 164 419Q164 432 156 438.5Q148 445 133 445Q118 445 98.5 439Q79 433 58 423Z" glyph-name="two.numerator" horiz-adv-x="285" unicode="" /><glyph d="M51 428 23 492Q52 505 77.5 511Q103 517 131 517Q180 517 210 492.5Q240 468 240 431Q240 411 229 392.5Q218 374 199 362Q227 352 243 330.5Q259 309 259 282Q259 239 223.5 210Q188 181 130 181Q105 181 76 187.5Q47 194 22 205L49 274Q75 264 94 260Q113 256 129 256Q151 256 161.5 264Q172 272 172 288Q172 307 154 315Q136 323 93 321L85 379Q128 386 141.5 394.5Q155 403 155 419Q155 431 146 438Q137 445 122 445Q108 445 91.5 441Q75 437 51 428Z" glyph-name="three.numerator" horiz-adv-x="286" unicode="" /><glyph d="M23 320 142 512H254V318H296V247H254V190H172V247H23ZM97 318 172 318V438Z" glyph-name="four.numerator" horiz-adv-x="321" unicode="" /><glyph d="M45 377 58 512H247V442H134L130 395Q133 396 139.5 396.5Q146 397 152 397Q201 397 230 369.5Q259 342 259 295Q259 245 225.5 214Q192 183 133 183Q111 183 82 190Q53 197 28 208L54 279Q79 269 99.5 263.5Q120 258 135 258Q155 258 164 266.5Q173 275 173 294Q173 313 161.5 322.5Q150 332 128 332Q116 332 101.5 330Q87 328 71 324Z" glyph-name="five.numerator" horiz-adv-x="300" unicode="" /><glyph d="M45 299 45 385Q45 445 79.5 481Q114 517 172 517Q196 517 220 511.5Q244 506 266 496L237 430Q224 437 208.5 441Q193 445 180 445Q152 445 141 431.5Q130 418 130 386V295Q130 272 138.5 261.5Q147 251 166 251Q184 251 193.5 260Q203 269 203 286V299Q203 315 195 323.5Q187 332 172 332Q168 332 164.5 331.5Q161 331 158 330L140 393Q150 398 162 400Q174 402 188 402Q230 402 257.5 373Q285 344 285 301V290Q285 242 253 211.5Q221 181 166 181Q109 181 77 213Q45 245 45 299Z" glyph-name="six.numerator" horiz-adv-x="318" unicode="" /><glyph d="M14 442 14 512H237V444Q199 397 174 338.5Q149 280 130 190H47Q63 272 85.5 332.5Q108 393 139 442Z" glyph-name="seven.numerator" horiz-adv-x="248" unicode="" /><glyph d="M77 362Q63 375 56 390.5Q49 406 49 422Q49 461 80 489Q111 517 161 517Q212 517 243 489Q274 461 274 422Q274 404 266.5 387Q259 370 245 355Q263 341 272.5 322Q282 303 282 284Q282 240 249 210.5Q216 181 161 181Q106 181 73 210.5Q40 240 40 284V285Q40 307 49.5 327Q59 347 77 362ZM178 383Q186 393 190 402.5Q194 412 194 423Q194 436 185 443.5Q176 451 161 451Q145 451 136.5 443.5Q128 436 129 423Q129 409 139.5 400.5Q150 392 178 383ZM161 248Q182 248 192 257Q202 266 202 284Q202 301 191.5 311Q181 321 145 333Q133 324 126.5 311Q120 298 120 284Q120 266 130 257Q140 248 161 248Z" glyph-name="eight.numerator" horiz-adv-x="322" unicode="" /><glyph d="M33 397 33 408Q33 456 65 486.5Q97 517 152 517Q209 517 241 485Q273 453 273 399V313Q273 253 238.5 217Q204 181 146 181Q121 181 96.5 186Q72 191 53 200L77 266Q89 261 107 257Q125 253 138 253Q166 253 177 266.5Q188 280 188 312V403Q188 426 179.5 436.5Q171 447 152 447Q134 447 124.5 438Q115 429 115 412V399Q115 383 123 374.5Q131 366 146 366Q150 366 153.5 366.5Q157 367 160 368L178 305Q168 301 156 298.5Q144 296 130 296Q88 296 60.5 325Q33 354 33 397Z" glyph-name="nine.numerator" horiz-adv-x="318" unicode="" /><glyph d="M45 122 45 196Q45 259 76.5 293Q108 327 168 327Q228 327 259.5 293Q291 259 291 196V122Q291 59 259.5 25Q228 -9 168 -9Q108 -9 76.5 25Q45 59 45 122ZM204 122 204 196Q204 228 196 241Q188 254 168 254Q148 254 140 241Q132 228 132 196V122Q132 90 139.5 77.5Q147 65 168 65Q189 65 196.5 77.5Q204 90 204 122Z" glyph-name="zero.denominator" horiz-adv-x="336" unicode="" /><glyph d="M5 258 117 322H186V0H100V225L42 192Z" glyph-name="one.denominator" horiz-adv-x="239" unicode="" /><glyph d="M58 233 29 299Q64 315 88.5 321Q113 327 139 327Q188 327 219 300Q250 273 250 231Q250 203 236.5 179Q223 155 178 118Q152 95 143 86Q134 77 129 70H245V-3H28V53Q39 83 59.5 108.5Q80 134 118 167Q151 195 157.5 206Q164 217 164 229Q164 242 156 248.5Q148 255 133 255Q118 255 98.5 249Q79 243 58 233Z" glyph-name="two.denominator" horiz-adv-x="285" unicode="" /><glyph d="M51 238 23 302Q52 315 77.5 321Q103 327 131 327Q180 327 210 302.5Q240 278 240 241Q240 221 229 202.5Q218 184 199 172Q227 162 243 140.5Q259 119 259 92Q259 49 223.5 20Q188 -9 130 -9Q105 -9 76 -2.5Q47 4 22 15L49 84Q75 74 94 70Q113 66 129 66Q151 66 161.5 74Q172 82 172 98Q172 117 154 125Q136 133 93 131L85 189Q128 196 141.5 204.5Q155 213 155 229Q155 241 146 248Q137 255 122 255Q108 255 91.5 251Q75 247 51 238Z" glyph-name="three.denominator" horiz-adv-x="286" unicode="" /><glyph d="M23 130 142 322H254V128H296V57H254V0H172V57H23ZM97 128 172 128V248Z" glyph-name="four.denominator" horiz-adv-x="321" unicode="" /><glyph d="M45 187 58 322H247V252H134L130 205Q133 206 139.5 206.5Q146 207 152 207Q201 207 230 179.5Q259 152 259 105Q259 55 225.5 24Q192 -7 133 -7Q111 -7 82 0Q53 7 28 18L54 89Q79 79 99.5 73.5Q120 68 135 68Q155 68 164 76.5Q173 85 173 104Q173 123 161.5 132.5Q150 142 128 142Q116 142 101.5 140Q87 138 71 134Z" glyph-name="five.denominator" horiz-adv-x="300" unicode="" /><glyph d="M45 109 45 195Q45 255 79.5 291Q114 327 172 327Q196 327 220 321.5Q244 316 266 306L237 240Q224 247 208.5 251Q193 255 180 255Q152 255 141 241.5Q130 228 130 196V105Q130 82 138.5 71.5Q147 61 166 61Q184 61 193.5 70Q203 79 203 96V109Q203 125 195 133.5Q187 142 172 142Q168 142 164.5 141.5Q161 141 158 140L140 203Q150 208 162 210Q174 212 188 212Q230 212 257.5 183Q285 154 285 111V100Q285 52 253 21.5Q221 -9 166 -9Q109 -9 77 23Q45 55 45 109Z" glyph-name="six.denominator" horiz-adv-x="318" unicode="" /><glyph d="M14 252 14 322H237V254Q199 207 174 148.5Q149 90 130 0H47Q63 82 85.5 142.5Q108 203 139 252Z" glyph-name="seven.denominator" horiz-adv-x="248" unicode="" /><glyph d="M77 172Q63 185 56 200.5Q49 216 49 232Q49 271 80 299Q111 327 161 327Q212 327 243 299Q274 271 274 232Q274 214 266.5 197Q259 180 245 165Q263 151 272.5 132Q282 113 282 94Q282 50 249 20.5Q216 -9 161 -9Q106 -9 73 20.5Q40 50 40 94V95Q40 117 49.5 137Q59 157 77 172ZM178 193Q186 203 190 212.5Q194 222 194 233Q194 246 185 253.5Q176 261 161 261Q145 261 136.5 253.5Q128 246 129 233Q129 219 139.5 210.5Q150 202 178 193ZM161 58Q182 58 192 67Q202 76 202 94Q202 111 191.5 121Q181 131 145 143Q133 134 126.5 121Q120 108 120 94Q120 76 130 67Q140 58 161 58Z" glyph-name="eight.denominator" horiz-adv-x="322" unicode="" /><glyph d="M33 207 33 218Q33 266 65 296.5Q97 327 152 327Q209 327 241 295Q273 263 273 209V123Q273 63 238.5 27Q204 -9 146 -9Q121 -9 96.5 -4Q72 1 53 10L77 76Q89 71 107 67Q125 63 138 63Q166 63 177 76.5Q188 90 188 122V213Q188 236 179.5 246.5Q171 257 152 257Q134 257 124.5 248Q115 239 115 222V209Q115 193 123 184.5Q131 176 146 176Q150 176 153.5 176.5Q157 177 160 178L178 115Q168 111 156 108.5Q144 106 130 106Q88 106 60.5 135Q33 164 33 207Z" glyph-name="nine.denominator" horiz-adv-x="318" unicode="" /><glyph d="M45 412 45 486Q45 549 76.5 583Q108 617 168 617Q228 617 259.5 583Q291 549 291 486V412Q291 349 259.5 315Q228 281 168 281Q108 281 76.5 315Q45 349 45 412ZM204 412 204 486Q204 518 196 531Q188 544 168 544Q148 544 140 531Q132 518 132 486V412Q132 380 139.5 367.5Q147 355 168 355Q189 355 196.5 367.5Q204 380 204 412Z" glyph-name="zerosuperior" horiz-adv-x="336" unicode="⁰" /><glyph d="M5 548 117 612H186V290H100V515L42 482Z" glyph-name="onesuperior" horiz-adv-x="239" unicode="¹" /><glyph d="M58 523 29 589Q64 605 88.5 611Q113 617 139 617Q188 617 219 590Q250 563 250 521Q250 493 236.5 469Q223 445 178 408Q152 385 143 376Q134 367 129 360H245V287H28V343Q39 373 59.5 398.5Q80 424 118 457Q151 485 157.5 496Q164 507 164 519Q164 532 156 538.5Q148 545 133 545Q118 545 98.5 539Q79 533 58 523Z" glyph-name="twosuperior" horiz-adv-x="285" unicode="²" /><glyph d="M51 528 23 592Q52 605 77.5 611Q103 617 131 617Q180 617 210 592.5Q240 568 240 531Q240 511 229 492.5Q218 474 199 462Q227 452 243 430.5Q259 409 259 382Q259 339 223.5 310Q188 281 130 281Q105 281 76 287.5Q47 294 22 305L49 374Q75 364 94 360Q113 356 129 356Q151 356 161.5 364Q172 372 172 388Q172 407 154 415Q136 423 93 421L85 479Q128 486 141.5 494.5Q155 503 155 519Q155 531 146 538Q137 545 122 545Q108 545 91.5 541Q75 537 51 528Z" glyph-name="threesuperior" horiz-adv-x="286" unicode="³" /><glyph d="M23 420 142 612H254V418H296V347H254V290H172V347H23ZM97 418 172 418V538Z" glyph-name="foursuperior" horiz-adv-x="321" unicode="⁴" /><glyph d="M45 477 58 612H247V542H134L130 495Q133 496 139.5 496.5Q146 497 152 497Q201 497 230 469.5Q259 442 259 395Q259 345 225.5 314Q192 283 133 283Q111 283 82 290Q53 297 28 308L54 379Q79 369 99.5 363.5Q120 358 135 358Q155 358 164 366.5Q173 375 173 394Q173 413 161.5 422.5Q150 432 128 432Q116 432 101.5 430Q87 428 71 424Z" glyph-name="fivesuperior" horiz-adv-x="300" unicode="⁵" /><glyph d="M45 399 45 485Q45 545 79.5 581Q114 617 172 617Q196 617 220 611.5Q244 606 266 596L237 530Q224 537 208.5 541Q193 545 180 545Q152 545 141 531.5Q130 518 130 486V395Q130 372 138.5 361.5Q147 351 166 351Q184 351 193.5 360Q203 369 203 386V399Q203 415 195 423.5Q187 432 172 432Q168 432 164.5 431.5Q161 431 158 430L140 493Q150 498 162 500Q174 502 188 502Q230 502 257.5 473Q285 444 285 401V390Q285 342 253 311.5Q221 281 166 281Q109 281 77 313Q45 345 45 399Z" glyph-name="sixsuperior" horiz-adv-x="318" unicode="⁶" /><glyph d="M14 542 14 612H237V544Q199 497 174 438.5Q149 380 130 290H47Q63 372 85.5 432.5Q108 493 139 542Z" glyph-name="sevensuperior" horiz-adv-x="248" unicode="⁷" /><glyph d="M77 462Q63 475 56 490.5Q49 506 49 522Q49 561 80 589Q111 617 161 617Q212 617 243 589Q274 561 274 522Q274 504 266.5 487Q259 470 245 455Q263 441 272.5 422Q282 403 282 384Q282 340 249 310.5Q216 281 161 281Q106 281 73 310.5Q40 340 40 384V385Q40 407 49.5 427Q59 447 77 462ZM178 483Q186 493 190 502.5Q194 512 194 523Q194 536 185 543.5Q176 551 161 551Q145 551 136.5 543.5Q128 536 129 523Q129 509 139.5 500.5Q150 492 178 483ZM161 348Q182 348 192 357Q202 366 202 384Q202 401 191.5 411Q181 421 145 433Q133 424 126.5 411Q120 398 120 384Q120 366 130 357Q140 348 161 348Z" glyph-name="eightsuperior" horiz-adv-x="322" unicode="⁸" /><glyph d="M33 497 33 508Q33 556 65 586.5Q97 617 152 617Q209 617 241 585Q273 553 273 499V413Q273 353 238.5 317Q204 281 146 281Q121 281 96.5 286Q72 291 53 300L77 366Q89 361 107 357Q125 353 138 353Q166 353 177 366.5Q188 380 188 412V503Q188 526 179.5 536.5Q171 547 152 547Q134 547 124.5 538Q115 529 115 512V499Q115 483 123 474.5Q131 466 146 466Q150 466 153.5 466.5Q157 467 160 468L178 405Q168 401 156 398.5Q144 396 130 396Q88 396 60.5 425Q33 454 33 497Z" glyph-name="ninesuperior" horiz-adv-x="318" unicode="⁹" /><glyph d="M45 22 45 96Q45 159 76.5 193Q108 227 168 227Q228 227 259.5 193Q291 159 291 96V22Q291 -41 259.5 -75Q228 -109 168 -109Q108 -109 76.5 -75Q45 -41 45 22ZM204 22 204 96Q204 128 196 141Q188 154 168 154Q148 154 140 141Q132 128 132 96V22Q132 -10 139.5 -22.5Q147 -35 168 -35Q189 -35 196.5 -22.5Q204 -10 204 22Z" glyph-name="zeroinferior" horiz-adv-x="336" unicode="₀" /><glyph d="M5 158 117 222H186V-100H100V125L42 92Z" glyph-name="oneinferior" horiz-adv-x="239" unicode="₁" /><glyph d="M58 133 29 199Q64 215 88.5 221Q113 227 139 227Q188 227 219 200Q250 173 250 131Q250 103 236.5 79Q223 55 178 18Q152 -5 143 -14Q134 -23 129 -30H245V-103H28V-47Q39 -17 59.5 8.5Q80 34 118 67Q151 95 157.5 106Q164 117 164 129Q164 142 156 148.5Q148 155 133 155Q118 155 98.5 149Q79 143 58 133Z" glyph-name="twoinferior" horiz-adv-x="285" unicode="₂" /><glyph d="M51 138 23 202Q52 215 77.5 221Q103 227 131 227Q180 227 210 202.5Q240 178 240 141Q240 121 229 102.5Q218 84 199 72Q227 62 243 40.5Q259 19 259 -8Q259 -51 223.5 -80Q188 -109 130 -109Q105 -109 76 -102.5Q47 -96 22 -85L49 -16Q75 -26 94 -30Q113 -34 129 -34Q151 -34 161.5 -26Q172 -18 172 -2Q172 17 154 25Q136 33 93 31L85 89Q128 96 141.5 104.5Q155 113 155 129Q155 141 146 148Q137 155 122 155Q108 155 91.5 151Q75 147 51 138Z" glyph-name="threeinferior" horiz-adv-x="286" unicode="₃" /><glyph d="M23 30 142 222H254V28H296V-43H254V-100H172V-43H23ZM97 28 172 28V148Z" glyph-name="fourinferior" horiz-adv-x="321" unicode="₄" /><glyph d="M45 87 58 222H247V152H134L130 105Q133 106 139.5 106.5Q146 107 152 107Q201 107 230 79.5Q259 52 259 5Q259 -45 225.5 -76Q192 -107 133 -107Q111 -107 82 -100Q53 -93 28 -82L54 -11Q79 -21 99.5 -26.5Q120 -32 135 -32Q155 -32 164 -23.5Q173 -15 173 4Q173 23 161.5 32.5Q150 42 128 42Q116 42 101.5 40Q87 38 71 34Z" glyph-name="fiveinferior" horiz-adv-x="300" unicode="₅" /><glyph d="M45 9 45 95Q45 155 79.5 191Q114 227 172 227Q196 227 220 221.5Q244 216 266 206L237 140Q224 147 208.5 151Q193 155 180 155Q152 155 141 141.5Q130 128 130 96V5Q130 -18 138.5 -28.5Q147 -39 166 -39Q184 -39 193.5 -30Q203 -21 203 -4V9Q203 25 195 33.5Q187 42 172 42Q168 42 164.5 41.5Q161 41 158 40L140 103Q150 108 162 110Q174 112 188 112Q230 112 257.5 83Q285 54 285 11V0Q285 -48 253 -78.5Q221 -109 166 -109Q109 -109 77 -77Q45 -45 45 9Z" glyph-name="sixinferior" horiz-adv-x="318" unicode="₆" /><glyph d="M14 152 14 222H237V154Q199 107 174 48.5Q149 -10 130 -100H47Q63 -18 85.5 42.5Q108 103 139 152Z" glyph-name="seveninferior" horiz-adv-x="248" unicode="₇" /><glyph d="M77 72Q63 85 56 100.5Q49 116 49 132Q49 171 80 199Q111 227 161 227Q212 227 243 199Q274 171 274 132Q274 114 266.5 97Q259 80 245 65Q263 51 272.5 32Q282 13 282 -6Q282 -50 249 -79.5Q216 -109 161 -109Q106 -109 73 -79.5Q40 -50 40 -6V-5Q40 17 49.5 37Q59 57 77 72ZM178 93Q186 103 190 112.5Q194 122 194 133Q194 146 185 153.5Q176 161 161 161Q145 161 136.5 153.5Q128 146 129 133Q129 119 139.5 110.5Q150 102 178 93ZM161 -42Q182 -42 192 -33Q202 -24 202 -6Q202 11 191.5 21Q181 31 145 43Q133 34 126.5 21Q120 8 120 -6Q120 -24 130 -33Q140 -42 161 -42Z" glyph-name="eightinferior" horiz-adv-x="322" unicode="₈" /><glyph d="M33 107 33 118Q33 166 65 196.5Q97 227 152 227Q209 227 241 195Q273 163 273 109V23Q273 -37 238.5 -73Q204 -109 146 -109Q121 -109 96.5 -104Q72 -99 53 -90L77 -24Q89 -29 107 -33Q125 -37 138 -37Q166 -37 177 -23.5Q188 -10 188 22V113Q188 136 179.5 146.5Q171 157 152 157Q134 157 124.5 148Q115 139 115 122V109Q115 93 123 84.5Q131 76 146 76Q150 76 153.5 76.5Q157 77 160 78L178 15Q168 11 156 8.5Q144 6 130 6Q88 6 60.5 35Q33 64 33 107Z" glyph-name="nineinferior" horiz-adv-x="318" unicode="₉" /><glyph d="M5 448 117 512H186V190H100V415L42 382ZM229 -44 159 -3L482 556L552 515ZM530 233 501 299Q536 315 560.5 321Q585 327 611 327Q660 327 691 300Q722 273 722 231Q722 203 708.5 179Q695 155 650 118Q624 95 615 86Q606 77 601 70H717V-3H500V53Q511 83 531.5 108.5Q552 134 590 167Q623 195 629.5 206Q636 217 636 229Q636 242 628 248.5Q620 255 605 255Q590 255 570.5 249Q551 243 530 233Z" glyph-name="onehalf" horiz-adv-x="757" unicode="½" /><glyph d="M5 448 117 512H186V190H100V415L42 382ZM229 -44 159 -3L482 556L552 515ZM523 238 495 302Q524 315 549.5 321Q575 327 603 327Q652 327 682 302.5Q712 278 712 241Q712 221 701 202.5Q690 184 671 172Q699 162 715 140.5Q731 119 731 92Q731 49 695.5 20Q660 -9 602 -9Q577 -9 548 -2.5Q519 4 494 15L521 84Q547 74 566 70Q585 66 601 66Q623 66 633.5 74Q644 82 644 98Q644 117 626 125Q608 133 565 131L557 189Q600 196 613.5 204.5Q627 213 627 229Q627 241 618 248Q609 255 594 255Q580 255 563.5 251Q547 247 523 238Z" glyph-name="onethird" horiz-adv-x="758" unicode="⅓" /><glyph d="M5 448 117 512H186V190H100V415L42 382ZM229 -44 159 -3L482 556L552 515ZM440 130 559 322H671V128H713V57H671V0H589V57H440ZM514 128 589 128V248Z" glyph-name="onequarter" horiz-adv-x="738" unicode="¼" /><glyph d="M5 448 117 512H186V190H100V415L42 382ZM229 -44 159 -3L482 556L552 515ZM517 187 530 322H719V252H606L602 205Q605 206 611.5 206.5Q618 207 624 207Q673 207 702 179.5Q731 152 731 105Q731 55 697.5 24Q664 -7 605 -7Q583 -7 554 0Q525 7 500 18L526 89Q551 79 571.5 73.5Q592 68 607 68Q627 68 636 76.5Q645 85 645 104Q645 123 633.5 132.5Q622 142 600 142Q588 142 573.5 140Q559 138 543 134Z" glyph-name="onefifth" horiz-adv-x="772" unicode="" /><glyph d="M5 448 117 512H186V190H100V415L42 382ZM229 -44 159 -3L482 556L552 515ZM507 109 507 195Q507 255 541.5 291Q576 327 634 327Q658 327 682 321.5Q706 316 728 306L699 240Q686 247 670.5 251Q655 255 642 255Q614 255 603 241.5Q592 228 592 196V105Q592 82 600.5 71.5Q609 61 628 61Q646 61 655.5 70Q665 79 665 96V109Q665 125 657 133.5Q649 142 634 142Q630 142 626.5 141.5Q623 141 620 140L602 203Q612 208 624 210Q636 212 650 212Q692 212 719.5 183Q747 154 747 111V100Q747 52 715 21.5Q683 -9 628 -9Q571 -9 539 23Q507 55 507 109Z" glyph-name="onesixth" horiz-adv-x="780" unicode="" /><glyph d="M5 448 117 512H186V190H100V415L42 382ZM229 -44 159 -3L482 556L552 515ZM516 252 516 322H739V254Q701 207 676 148.5Q651 90 632 0H549Q565 82 587.5 142.5Q610 203 641 252Z" glyph-name="oneseventh" horiz-adv-x="750" unicode="" /><glyph d="M5 448 117 512H186V190H100V415L42 382ZM229 -44 159 -3L482 556L552 515ZM529 172Q515 185 508 200.5Q501 216 501 232Q501 271 532 299Q563 327 613 327Q664 327 695 299Q726 271 726 232Q726 214 718.5 197Q711 180 697 165Q715 151 724.5 132Q734 113 734 94Q734 50 701 20.5Q668 -9 613 -9Q558 -9 525 20.5Q492 50 492 94V95Q492 117 501.5 137Q511 157 529 172ZM630 193Q638 203 642 212.5Q646 222 646 233Q646 246 637 253.5Q628 261 613 261Q597 261 588.5 253.5Q580 246 581 233Q581 219 591.5 210.5Q602 202 630 193ZM613 58Q634 58 644 67Q654 76 654 94Q654 111 643.5 121Q633 131 597 143Q585 134 578.5 121Q572 108 572 94Q572 76 582 67Q592 58 613 58Z" glyph-name="oneeighth" horiz-adv-x="774" unicode="⅛" /><glyph d="M5 448 117 512H186V190H100V415L42 382ZM229 -44 159 -3L482 556L552 515ZM495 207 495 218Q495 266 527 296.5Q559 327 614 327Q671 327 703 295Q735 263 735 209V123Q735 63 700.5 27Q666 -9 608 -9Q583 -9 558.5 -4Q534 1 515 10L539 76Q551 71 569 67Q587 63 600 63Q628 63 639 76.5Q650 90 650 122V213Q650 236 641.5 246.5Q633 257 614 257Q596 257 586.5 248Q577 239 577 222V209Q577 193 585 184.5Q593 176 608 176Q612 176 615.5 176.5Q619 177 622 178L640 115Q630 111 618 108.5Q606 106 592 106Q550 106 522.5 135Q495 164 495 207Z" glyph-name="oneninth" horiz-adv-x="780" unicode="" /><glyph d="M58 423 29 489Q64 505 88.5 511Q113 517 139 517Q188 517 219 490Q250 463 250 421Q250 393 236.5 369Q223 345 178 308Q152 285 143 276Q134 267 129 260H245V187H28V243Q39 273 59.5 298.5Q80 324 118 357Q151 385 157.5 396Q164 407 164 419Q164 432 156 438.5Q148 445 133 445Q118 445 98.5 439Q79 433 58 423ZM275 -44 205 -3L528 556L598 515ZM569 238 541 302Q570 315 595.5 321Q621 327 649 327Q698 327 728 302.5Q758 278 758 241Q758 221 747 202.5Q736 184 717 172Q745 162 761 140.5Q777 119 777 92Q777 49 741.5 20Q706 -9 648 -9Q623 -9 594 -2.5Q565 4 540 15L567 84Q593 74 612 70Q631 66 647 66Q669 66 679.5 74Q690 82 690 98Q690 117 672 125Q654 133 611 131L603 189Q646 196 659.5 204.5Q673 213 673 229Q673 241 664 248Q655 255 640 255Q626 255 609.5 251Q593 247 569 238Z" glyph-name="twothirds" horiz-adv-x="804" unicode="⅔" /><glyph d="M58 423 29 489Q64 505 88.5 511Q113 517 139 517Q188 517 219 490Q250 463 250 421Q250 393 236.5 369Q223 345 178 308Q152 285 143 276Q134 267 129 260H245V187H28V243Q39 273 59.5 298.5Q80 324 118 357Q151 385 157.5 396Q164 407 164 419Q164 432 156 438.5Q148 445 133 445Q118 445 98.5 439Q79 433 58 423ZM275 -44 205 -3L528 556L598 515ZM563 187 576 322H765V252H652L648 205Q651 206 657.5 206.5Q664 207 670 207Q719 207 748 179.5Q777 152 777 105Q777 55 743.5 24Q710 -7 651 -7Q629 -7 600 0Q571 7 546 18L572 89Q597 79 617.5 73.5Q638 68 653 68Q673 68 682 76.5Q691 85 691 104Q691 123 679.5 132.5Q668 142 646 142Q634 142 619.5 140Q605 138 589 134Z" glyph-name="twofifths" horiz-adv-x="818" unicode="" /><glyph d="M58 423 29 489Q64 505 88.5 511Q113 517 139 517Q188 517 219 490Q250 463 250 421Q250 393 236.5 369Q223 345 178 308Q152 285 143 276Q134 267 129 260H245V187H28V243Q39 273 59.5 298.5Q80 324 118 357Q151 385 157.5 396Q164 407 164 419Q164 432 156 438.5Q148 445 133 445Q118 445 98.5 439Q79 433 58 423ZM275 -44 205 -3L528 556L598 515ZM562 252 562 322H785V254Q747 207 722 148.5Q697 90 678 0H595Q611 82 633.5 142.5Q656 203 687 252Z" glyph-name="twosevenths" horiz-adv-x="796" unicode="" /><glyph d="M58 423 29 489Q64 505 88.5 511Q113 517 139 517Q188 517 219 490Q250 463 250 421Q250 393 236.5 369Q223 345 178 308Q152 285 143 276Q134 267 129 260H245V187H28V243Q39 273 59.5 298.5Q80 324 118 357Q151 385 157.5 396Q164 407 164 419Q164 432 156 438.5Q148 445 133 445Q118 445 98.5 439Q79 433 58 423ZM275 -44 205 -3L528 556L598 515ZM541 207 541 218Q541 266 573 296.5Q605 327 660 327Q717 327 749 295Q781 263 781 209V123Q781 63 746.5 27Q712 -9 654 -9Q629 -9 604.5 -4Q580 1 561 10L585 76Q597 71 615 67Q633 63 646 63Q674 63 685 76.5Q696 90 696 122V213Q696 236 687.5 246.5Q679 257 660 257Q642 257 632.5 248Q623 239 623 222V209Q623 193 631 184.5Q639 176 654 176Q658 176 661.5 176.5Q665 177 668 178L686 115Q676 111 664 108.5Q652 106 638 106Q596 106 568.5 135Q541 164 541 207Z" glyph-name="twoninths" horiz-adv-x="826" unicode="" /><glyph d="M51 428 23 492Q52 505 77.5 511Q103 517 131 517Q180 517 210 492.5Q240 468 240 431Q240 411 229 392.5Q218 374 199 362Q227 352 243 330.5Q259 309 259 282Q259 239 223.5 210Q188 181 130 181Q105 181 76 187.5Q47 194 22 205L49 274Q75 264 94 260Q113 256 129 256Q151 256 161.5 264Q172 272 172 288Q172 307 154 315Q136 323 93 321L85 379Q128 386 141.5 394.5Q155 403 155 419Q155 431 146 438Q137 445 122 445Q108 445 91.5 441Q75 437 51 428ZM266 -44 196 -3L519 556L589 515ZM477 130 596 322H708V128H750V57H708V0H626V57H477ZM551 128 626 128V248Z" glyph-name="threequarters" horiz-adv-x="775" unicode="¾" /><glyph d="M51 428 23 492Q52 505 77.5 511Q103 517 131 517Q180 517 210 492.5Q240 468 240 431Q240 411 229 392.5Q218 374 199 362Q227 352 243 330.5Q259 309 259 282Q259 239 223.5 210Q188 181 130 181Q105 181 76 187.5Q47 194 22 205L49 274Q75 264 94 260Q113 256 129 256Q151 256 161.5 264Q172 272 172 288Q172 307 154 315Q136 323 93 321L85 379Q128 386 141.5 394.5Q155 403 155 419Q155 431 146 438Q137 445 122 445Q108 445 91.5 441Q75 437 51 428ZM266 -44 196 -3L519 556L589 515ZM554 187 567 322H756V252H643L639 205Q642 206 648.5 206.5Q655 207 661 207Q710 207 739 179.5Q768 152 768 105Q768 55 734.5 24Q701 -7 642 -7Q620 -7 591 0Q562 7 537 18L563 89Q588 79 608.5 73.5Q629 68 644 68Q664 68 673 76.5Q682 85 682 104Q682 123 670.5 132.5Q659 142 637 142Q625 142 610.5 140Q596 138 580 134Z" glyph-name="threefifths" horiz-adv-x="809" unicode="" /><glyph d="M51 428 23 492Q52 505 77.5 511Q103 517 131 517Q180 517 210 492.5Q240 468 240 431Q240 411 229 392.5Q218 374 199 362Q227 352 243 330.5Q259 309 259 282Q259 239 223.5 210Q188 181 130 181Q105 181 76 187.5Q47 194 22 205L49 274Q75 264 94 260Q113 256 129 256Q151 256 161.5 264Q172 272 172 288Q172 307 154 315Q136 323 93 321L85 379Q128 386 141.5 394.5Q155 403 155 419Q155 431 146 438Q137 445 122 445Q108 445 91.5 441Q75 437 51 428ZM266 -44 196 -3L519 556L589 515ZM553 252 553 322H776V254Q738 207 713 148.5Q688 90 669 0H586Q602 82 624.5 142.5Q647 203 678 252Z" glyph-name="threesevenths" horiz-adv-x="787" unicode="" /><glyph d="M51 428 23 492Q52 505 77.5 511Q103 517 131 517Q180 517 210 492.5Q240 468 240 431Q240 411 229 392.5Q218 374 199 362Q227 352 243 330.5Q259 309 259 282Q259 239 223.5 210Q188 181 130 181Q105 181 76 187.5Q47 194 22 205L49 274Q75 264 94 260Q113 256 129 256Q151 256 161.5 264Q172 272 172 288Q172 307 154 315Q136 323 93 321L85 379Q128 386 141.5 394.5Q155 403 155 419Q155 431 146 438Q137 445 122 445Q108 445 91.5 441Q75 437 51 428ZM266 -44 196 -3L519 556L589 515ZM566 172Q552 185 545 200.5Q538 216 538 232Q538 271 569 299Q600 327 650 327Q701 327 732 299Q763 271 763 232Q763 214 755.5 197Q748 180 734 165Q752 151 761.5 132Q771 113 771 94Q771 50 738 20.5Q705 -9 650 -9Q595 -9 562 20.5Q529 50 529 94V95Q529 117 538.5 137Q548 157 566 172ZM667 193Q675 203 679 212.5Q683 222 683 233Q683 246 674 253.5Q665 261 650 261Q634 261 625.5 253.5Q617 246 618 233Q618 219 628.5 210.5Q639 202 667 193ZM650 58Q671 58 681 67Q691 76 691 94Q691 111 680.5 121Q670 131 634 143Q622 134 615.5 121Q609 108 609 94Q609 76 619 67Q629 58 650 58Z" glyph-name="threeeighths" horiz-adv-x="811" unicode="⅜" /><glyph d="M23 320 142 512H254V318H296V247H254V190H172V247H23ZM97 318 172 318V438ZM311 -44 241 -3L564 556L634 515ZM599 187 612 322H801V252H688L684 205Q687 206 693.5 206.5Q700 207 706 207Q755 207 784 179.5Q813 152 813 105Q813 55 779.5 24Q746 -7 687 -7Q665 -7 636 0Q607 7 582 18L608 89Q633 79 653.5 73.5Q674 68 689 68Q709 68 718 76.5Q727 85 727 104Q727 123 715.5 132.5Q704 142 682 142Q670 142 655.5 140Q641 138 625 134Z" glyph-name="fourfifths" horiz-adv-x="854" unicode="" /><glyph d="M23 320 142 512H254V318H296V247H254V190H172V247H23ZM97 318 172 318V438ZM311 -44 241 -3L564 556L634 515ZM598 252 598 322H821V254Q783 207 758 148.5Q733 90 714 0H631Q647 82 669.5 142.5Q692 203 723 252Z" glyph-name="foursevenths" horiz-adv-x="832" unicode="" /><glyph d="M23 320 142 512H254V318H296V247H254V190H172V247H23ZM97 318 172 318V438ZM311 -44 241 -3L564 556L634 515ZM577 207 577 218Q577 266 609 296.5Q641 327 696 327Q753 327 785 295Q817 263 817 209V123Q817 63 782.5 27Q748 -9 690 -9Q665 -9 640.5 -4Q616 1 597 10L621 76Q633 71 651 67Q669 63 682 63Q710 63 721 76.5Q732 90 732 122V213Q732 236 723.5 246.5Q715 257 696 257Q678 257 668.5 248Q659 239 659 222V209Q659 193 667 184.5Q675 176 690 176Q694 176 697.5 176.5Q701 177 704 178L722 115Q712 111 700 108.5Q688 106 674 106Q632 106 604.5 135Q577 164 577 207Z" glyph-name="fourninths" horiz-adv-x="862" unicode="" /><glyph d="M45 377 58 512H247V442H134L130 395Q133 396 139.5 396.5Q146 397 152 397Q201 397 230 369.5Q259 342 259 295Q259 245 225.5 214Q192 183 133 183Q111 183 82 190Q53 197 28 208L54 279Q79 269 99.5 263.5Q120 258 135 258Q155 258 164 266.5Q173 275 173 294Q173 313 161.5 322.5Q150 332 128 332Q116 332 101.5 330Q87 328 71 324ZM270 -44 200 -3L523 556L593 515ZM548 109 548 195Q548 255 582.5 291Q617 327 675 327Q699 327 723 321.5Q747 316 769 306L740 240Q727 247 711.5 251Q696 255 683 255Q655 255 644 241.5Q633 228 633 196V105Q633 82 641.5 71.5Q650 61 669 61Q687 61 696.5 70Q706 79 706 96V109Q706 125 698 133.5Q690 142 675 142Q671 142 667.5 141.5Q664 141 661 140L643 203Q653 208 665 210Q677 212 691 212Q733 212 760.5 183Q788 154 788 111V100Q788 52 756 21.5Q724 -9 669 -9Q612 -9 580 23Q548 55 548 109Z" glyph-name="fivesixths" horiz-adv-x="821" unicode="" /><glyph d="M45 377 58 512H247V442H134L130 395Q133 396 139.5 396.5Q146 397 152 397Q201 397 230 369.5Q259 342 259 295Q259 245 225.5 214Q192 183 133 183Q111 183 82 190Q53 197 28 208L54 279Q79 269 99.5 263.5Q120 258 135 258Q155 258 164 266.5Q173 275 173 294Q173 313 161.5 322.5Q150 332 128 332Q116 332 101.5 330Q87 328 71 324ZM270 -44 200 -3L523 556L593 515ZM557 252 557 322H780V254Q742 207 717 148.5Q692 90 673 0H590Q606 82 628.5 142.5Q651 203 682 252Z" glyph-name="fivesevenths" horiz-adv-x="791" unicode="" /><glyph d="M45 377 58 512H247V442H134L130 395Q133 396 139.5 396.5Q146 397 152 397Q201 397 230 369.5Q259 342 259 295Q259 245 225.5 214Q192 183 133 183Q111 183 82 190Q53 197 28 208L54 279Q79 269 99.5 263.5Q120 258 135 258Q155 258 164 266.5Q173 275 173 294Q173 313 161.5 322.5Q150 332 128 332Q116 332 101.5 330Q87 328 71 324ZM270 -44 200 -3L523 556L593 515ZM570 172Q556 185 549 200.5Q542 216 542 232Q542 271 573 299Q604 327 654 327Q705 327 736 299Q767 271 767 232Q767 214 759.5 197Q752 180 738 165Q756 151 765.5 132Q775 113 775 94Q775 50 742 20.5Q709 -9 654 -9Q599 -9 566 20.5Q533 50 533 94V95Q533 117 542.5 137Q552 157 570 172ZM671 193Q679 203 683 212.5Q687 222 687 233Q687 246 678 253.5Q669 261 654 261Q638 261 629.5 253.5Q621 246 622 233Q622 219 632.5 210.5Q643 202 671 193ZM654 58Q675 58 685 67Q695 76 695 94Q695 111 684.5 121Q674 131 638 143Q626 134 619.5 121Q613 108 613 94Q613 76 623 67Q633 58 654 58Z" glyph-name="fiveeighths" horiz-adv-x="815" unicode="⅝" /><glyph d="M45 377 58 512H247V442H134L130 395Q133 396 139.5 396.5Q146 397 152 397Q201 397 230 369.5Q259 342 259 295Q259 245 225.5 214Q192 183 133 183Q111 183 82 190Q53 197 28 208L54 279Q79 269 99.5 263.5Q120 258 135 258Q155 258 164 266.5Q173 275 173 294Q173 313 161.5 322.5Q150 332 128 332Q116 332 101.5 330Q87 328 71 324ZM270 -44 200 -3L523 556L593 515ZM536 207 536 218Q536 266 568 296.5Q600 327 655 327Q712 327 744 295Q776 263 776 209V123Q776 63 741.5 27Q707 -9 649 -9Q624 -9 599.5 -4Q575 1 556 10L580 76Q592 71 610 67Q628 63 641 63Q669 63 680 76.5Q691 90 691 122V213Q691 236 682.5 246.5Q674 257 655 257Q637 257 627.5 248Q618 239 618 222V209Q618 193 626 184.5Q634 176 649 176Q653 176 656.5 176.5Q660 177 663 178L681 115Q671 111 659 108.5Q647 106 633 106Q591 106 563.5 135Q536 164 536 207Z" glyph-name="fiveninths" horiz-adv-x="821" unicode="" /><glyph d="M45 299 45 385Q45 445 79.5 481Q114 517 172 517Q196 517 220 511.5Q244 506 266 496L237 430Q224 437 208.5 441Q193 445 180 445Q152 445 141 431.5Q130 418 130 386V295Q130 272 138.5 261.5Q147 251 166 251Q184 251 193.5 260Q203 269 203 286V299Q203 315 195 323.5Q187 332 172 332Q168 332 164.5 331.5Q161 331 158 330L140 393Q150 398 162 400Q174 402 188 402Q230 402 257.5 373Q285 344 285 301V290Q285 242 253 211.5Q221 181 166 181Q109 181 77 213Q45 245 45 299ZM298 -44 228 -3L551 556L621 515ZM585 252 585 322H808V254Q770 207 745 148.5Q720 90 701 0H618Q634 82 656.5 142.5Q679 203 710 252Z" glyph-name="sixsevenths" horiz-adv-x="819" unicode="" /><glyph d="M14 442 14 512H237V444Q199 397 174 338.5Q149 280 130 190H47Q63 272 85.5 332.5Q108 393 139 442ZM198 -44 128 -3L451 556L521 515ZM498 172Q484 185 477 200.5Q470 216 470 232Q470 271 501 299Q532 327 582 327Q633 327 664 299Q695 271 695 232Q695 214 687.5 197Q680 180 666 165Q684 151 693.5 132Q703 113 703 94Q703 50 670 20.5Q637 -9 582 -9Q527 -9 494 20.5Q461 50 461 94V95Q461 117 470.5 137Q480 157 498 172ZM599 193Q607 203 611 212.5Q615 222 615 233Q615 246 606 253.5Q597 261 582 261Q566 261 557.5 253.5Q549 246 550 233Q550 219 560.5 210.5Q571 202 599 193ZM582 58Q603 58 613 67Q623 76 623 94Q623 111 612.5 121Q602 131 566 143Q554 134 547.5 121Q541 108 541 94Q541 76 551 67Q561 58 582 58Z" glyph-name="seveneighths" horiz-adv-x="743" unicode="⅞" /><glyph d="M14 442 14 512H237V444Q199 397 174 338.5Q149 280 130 190H47Q63 272 85.5 332.5Q108 393 139 442ZM198 -44 128 -3L451 556L521 515ZM464 207 464 218Q464 266 496 296.5Q528 327 583 327Q640 327 672 295Q704 263 704 209V123Q704 63 669.5 27Q635 -9 577 -9Q552 -9 527.5 -4Q503 1 484 10L508 76Q520 71 538 67Q556 63 569 63Q597 63 608 76.5Q619 90 619 122V213Q619 236 610.5 246.5Q602 257 583 257Q565 257 555.5 248Q546 239 546 222V209Q546 193 554 184.5Q562 176 577 176Q581 176 584.5 176.5Q588 177 591 178L609 115Q599 111 587 108.5Q575 106 561 106Q519 106 491.5 135Q464 164 464 207Z" glyph-name="sevenninths" horiz-adv-x="749" unicode="" /><glyph d="M77 362Q63 375 56 390.5Q49 406 49 422Q49 461 80 489Q111 517 161 517Q212 517 243 489Q274 461 274 422Q274 404 266.5 387Q259 370 245 355Q263 341 272.5 322Q282 303 282 284Q282 240 249 210.5Q216 181 161 181Q106 181 73 210.5Q40 240 40 284V285Q40 307 49.5 327Q59 347 77 362ZM178 383Q186 393 190 402.5Q194 412 194 423Q194 436 185 443.5Q176 451 161 451Q145 451 136.5 443.5Q128 436 129 423Q129 409 139.5 400.5Q150 392 178 383ZM161 248Q182 248 192 257Q202 266 202 284Q202 301 191.5 311Q181 321 145 333Q133 324 126.5 311Q120 298 120 284Q120 266 130 257Q140 248 161 248ZM292 -44 222 -3L545 556L615 515ZM558 207 558 218Q558 266 590 296.5Q622 327 677 327Q734 327 766 295Q798 263 798 209V123Q798 63 763.5 27Q729 -9 671 -9Q646 -9 621.5 -4Q597 1 578 10L602 76Q614 71 632 67Q650 63 663 63Q691 63 702 76.5Q713 90 713 122V213Q713 236 704.5 246.5Q696 257 677 257Q659 257 649.5 248Q640 239 640 222V209Q640 193 648 184.5Q656 176 671 176Q675 176 678.5 176.5Q682 177 685 178L703 115Q693 111 681 108.5Q669 106 655 106Q613 106 585.5 135Q558 164 558 207Z" glyph-name="eightninths" horiz-adv-x="843" unicode="" /><glyph d="M173 303 173 415H269V303H381V209H269V97H173V209H61V303Z" glyph-name="plus" horiz-adv-x="442" unicode="+" /><glyph d="M61 209 61 303H381V209Z" glyph-name="minus" horiz-adv-x="442" unicode="−" /><glyph d="M157 256 61 351L126 416L222 321L316 415L380 351L286 257L381 161L316 96L221 192L126 97L62 161Z" glyph-name="multiply" horiz-adv-x="442" unicode="×" /><glyph d="M222 344 137 429L222 514L307 429ZM55 209 55 303H387V209ZM222 -3 137 83L222 168L307 83Z" glyph-name="divide" horiz-adv-x="442" unicode="÷" /><glyph d="M63 288 63 382H379V288ZM63 130 63 224H379V130Z" glyph-name="equal" horiz-adv-x="442" unicode="=" /><glyph d="M61 209 61 303H381V97H285V209Z" glyph-name="logicalnot" horiz-adv-x="442" unicode="¬" /><glyph d="M219 303Q241 296 250.5 294Q260 292 268 292Q282 292 290 300Q298 308 302 327L392 312Q386 254 361.5 225Q337 196 295 196Q281 196 266.5 199Q252 202 225 211Q204 219 193.5 221Q183 223 174 223Q159 223 151 214.5Q143 206 140 189L50 204Q55 260 80 288.5Q105 317 150 317Q163 317 177.5 314Q192 311 219 303Z" glyph-name="asciitilde" horiz-adv-x="442" unicode="~" /><glyph d="M73 203 73 309L369 433V332L180 256L369 180V79Z" glyph-name="less" horiz-adv-x="442" unicode="&lt;" /><glyph d="M262 256 73 332V433L369 309V203L73 79V180Z" glyph-name="greater" horiz-adv-x="442" unicode="&gt;" /><glyph d="M173 405 173 512H269V405H381V311H269V204H173V311H61V405ZM63 53 63 147H379V53Z" glyph-name="plusminus" horiz-adv-x="442" unicode="±" /><glyph d="M0 372 122 595H235L359 372H252L179 509L105 372Z" glyph-name="asciicircum" horiz-adv-x="359" unicode="^" /><glyph d="M54 382 205 382L230 466L313 439L296 382H370V288H267L248 224H370V130H219L194 46L111 73L128 130H54V224H157L176 288H54Z" glyph-name="notequal" horiz-adv-x="424" unicode="≠" /><glyph d="M219 387Q241 380 250.5 378Q260 376 268 376Q282 376 290 384Q298 392 302 411L392 396Q386 338 361.5 309Q337 280 295 280Q281 280 266.5 283Q252 286 225 295Q204 303 193.5 305Q183 307 174 307Q159 307 151 298.5Q143 290 140 273L50 288Q55 344 80 372.5Q105 401 150 401Q163 401 177.5 398Q192 395 219 387ZM219 220Q241 213 250.5 211Q260 209 268 209Q282 209 290 217Q298 225 302 244L392 229Q386 171 361.5 142Q337 113 295 113Q281 113 266.5 116Q252 119 225 128Q204 136 193.5 138Q183 140 174 140Q159 140 151 131.5Q143 123 140 106L50 121Q55 177 80 205.5Q105 234 150 234Q163 234 177.5 231Q192 228 219 220Z" glyph-name="approxequal" horiz-adv-x="442" unicode="≈" /><glyph d="M73 268 73 383L369 487V391L173 326L369 260V164ZM73 53 73 147H369V53Z" glyph-name="lessequal" horiz-adv-x="442" unicode="≤" /><glyph d="M269 326 73 391V487L369 383V268L73 164V260ZM73 53 73 147H369V53Z" glyph-name="greaterequal" horiz-adv-x="442" unicode="≥" /><glyph d="M184 381Q218 381 248.5 366Q279 351 305 322Q331 350 363 365.5Q395 381 427 381Q491 381 527 347Q563 313 563 255Q563 196 527 162Q491 128 427 128Q394 128 362.5 143.5Q331 159 305 188Q277 158 247 143Q217 128 183 128Q119 128 83 162.5Q47 197 47 255Q47 313 83.5 347Q120 381 184 381ZM184 213Q203 213 219.5 222.5Q236 232 255 255Q236 278 219.5 287.5Q203 297 184 297Q160 297 147 286Q134 275 134 255Q134 235 147 224Q160 213 184 213ZM425 213Q449 213 462 224Q475 235 475 255Q475 275 462 286Q449 297 425 297Q407 297 390.5 287.5Q374 278 354 255Q374 232 390.5 222.5Q407 213 425 213Z" glyph-name="infinity" horiz-adv-x="610" unicode="∞" /><glyph d="M30 257 194 512H287L450 257L287 0H194ZM240 127 322 257L240 385L157 257Z" glyph-name="lozenge" horiz-adv-x="480" unicode="◊" /><glyph d="M235 117 384 595H502L314 0H160L73 236H0V330H157Z" glyph-name="radical" horiz-adv-x="502" unicode="√" /><glyph d="M90 -16 90 431Q90 509 138.5 557.5Q187 606 271 606Q283 606 297 604.5Q311 603 322 600L306 497Q298 499 290 499.5Q282 500 275 500Q243 500 226.5 482.5Q210 465 210 431V-16Q210 -94 161.5 -142.5Q113 -191 29 -191Q17 -191 3 -189.5Q-11 -188 -22 -185L-6 -82Q2 -84 10 -84.5Q18 -85 25 -85Q57 -85 73.5 -67.5Q90 -50 90 -16Z" glyph-name="integral" horiz-adv-x="329" unicode="∫" /><glyph d="M286 376Q278 394 261 410Q244 426 198 455L255 546Q316 514 346.5 487.5Q377 461 393 430Q410 396 413.5 352Q417 308 409 248L397 157Q386 76 335.5 32.5Q285 -11 200 -11Q111 -11 65 40Q19 91 34 168L37 183Q50 261 96 301.5Q142 342 219 342Q233 342 247.5 340.5Q262 339 271 336L247 239Q242 240 234 241Q226 242 219 242Q190 242 176 228Q162 214 154 174L151 158Q145 122 157.5 105.5Q170 89 205 89Q238 89 255 106.5Q272 124 278 163L291 255Q297 299 296 327.5Q295 356 286 376Z" glyph-name="partialdiff" horiz-adv-x="445" unicode="∂" /><glyph d="M484 415 484 -97H364V415H217V-97H96L97 415H26V512H555V415Z" glyph-name="product" horiz-adv-x="581" unicode="∏" /><glyph d="M12 319 12 415H493V319H422V155Q422 126 433.5 112.5Q445 99 472 99Q480 99 484.5 99Q489 99 494 100L504 -5Q493 -7 482.5 -7.5Q472 -8 462 -8Q385 -8 343.5 34.5Q302 77 302 152V319H201V0H81V319Z" glyph-name="pi" horiz-adv-x="530" unicode="π" /><glyph d="M313 173 313 415H433V0H344L332 41Q319 15 297 2Q275 -11 245 -11Q223 -11 206 -4.5Q189 2 177 15V-180H57V415H177V173Q177 135 195 114Q213 93 245 93Q277 92 295 113Q313 134 313 173Z" glyph-name="mu" horiz-adv-x="490" unicode="µ" /><glyph d="M32 496 32 595H402V496H168L350 208L158 -81H413V-180H22V-81L214 208Z" glyph-name="summation" horiz-adv-x="435" unicode="∑" /><glyph d="M42 229 42 312Q42 409 99 466Q156 523 256 523Q356 523 413 466Q470 409 470 312V229Q470 183 454.5 148.5Q439 114 409 92H492V0H290V92Q321 109 335.5 142Q350 175 350 229V312Q350 366 326 394Q302 422 256 422Q210 422 186 394Q162 366 162 312V229Q162 175 176.5 142Q191 109 222 92V0H20V92H103Q73 114 57.5 148.5Q42 183 42 229Z" glyph-name="Omega" horiz-adv-x="512" unicode="Ω" /><glyph d="M30 97 206 512H340L515 97V0H30ZM148 97 399 97L273 397Z" glyph-name="Delta" horiz-adv-x="545" unicode="∆" /><glyph d="M790 314 790 305H207Q204 305 203 304Q202 303 202 301V125Q202 119 204 114Q206 109 210 105Q254 59 311 34Q368 9 431 9Q498 9 558 37Q618 65 663 116H715Q664 57 589 23.5Q514 -10 430 -10Q281 -10 175.5 85Q70 180 70 314Q70 448 175.5 543Q281 638 430 638Q579 638 684.5 543Q790 448 790 314ZM658 328 658 506Q658 512 656 517.5Q654 523 649 527Q605 571 548.5 595Q492 619 431 619Q369 619 312 594.5Q255 570 211 524Q206 519 204 514Q202 509 202 502V328Q202 326 203.5 324.5Q205 323 207 323H654Q656 323 657 324.5Q658 326 658 328Z" glyph-name="estimated" horiz-adv-x="861" unicode="℮" /><glyph d="M300 -31 17 256L300 542L369 476L201 306H609V206H201L368 34Z" glyph-name="arrowleft" horiz-adv-x="640" unicode="←" /><glyph d="M99 254 35 324L320 605L605 324L541 254L374 420V0H266V420Z" glyph-name="arrowup" horiz-adv-x="640" unicode="↑" /><glyph d="M439 306 271 476L340 542L623 256L340 -31L272 34L439 206H31V306Z" glyph-name="arrowright" horiz-adv-x="640" unicode="→" /><glyph d="M266 175 266 594H374V175L541 341L605 271L320 -10L35 271L99 341Z" glyph-name="arrowdown" horiz-adv-x="640" unicode="↓" /><glyph d="M639 306 471 476L540 542L823 256L540 -31L472 34L639 206H201L368 34L300 -31L17 256L300 542L369 476L201 306Z" glyph-name="arrowboth" horiz-adv-x="840" unicode="↔" /><glyph d="M99 254 35 324L320 605L605 324L541 254L374 420V-5L541 161L605 91L320 -190L35 91L99 161L266 -5V420Z" glyph-name="arrowupdn" horiz-adv-x="640" unicode="↕" /><glyph d="M115 109 115 512H518V417H283L570 130L497 57L213 343V109Z" glyph-name="uni2196" horiz-adv-x="640" unicode="↖" /><glyph d="M122 417 122 512H525V109H427V343L143 57L70 130L357 417Z" glyph-name="uni2197" horiz-adv-x="640" unicode="↗" /><glyph d="M357 157 70 444L143 517L427 231V465H525V62H122V157Z" glyph-name="uni2198" horiz-adv-x="640" unicode="↘" /><glyph d="M213 465 213 231L497 517L570 444L283 157H518V62H115V465Z" glyph-name="uni2199" horiz-adv-x="640" unicode="↙" /><glyph d="M31 215 31 297Q99 332 158 377Q217 422 298 502L364 436Q320 391 283 360Q246 329 208 306H609V206H208Q246 183 283 152Q320 121 364 76L298 10Q217 90 158 135Q99 180 31 215Z" glyph-name="arrowleft.alt" horiz-adv-x="640" unicode="⇐" /><glyph d="M277 594 363 594Q399 526 444 467Q489 408 571 327L506 262Q456 311 425.5 347Q395 383 374 417V0H266V417Q245 383 214.5 347Q184 311 134 262L69 327Q151 408 196 467Q241 526 277 594Z" glyph-name="arrowup.alt" horiz-adv-x="640" unicode="⇑" /><glyph d="M276 436 342 502Q423 422 482 377Q541 332 609 297V215Q541 180 482 135Q423 90 342 10L276 76Q320 121 357 152Q394 183 432 206H31V306H432Q394 329 357 360Q320 391 276 436Z" glyph-name="arrowright.alt" horiz-adv-x="640" unicode="⇒" /><glyph d="M266 177 266 594H374V177Q395 211 425.5 247Q456 283 506 332L571 267Q489 186 444 127Q399 68 363 0H277Q241 68 196 127Q151 186 69 267L134 332Q184 283 214.5 247Q245 211 266 177Z" glyph-name="arrowdown.alt" horiz-adv-x="640" unicode="⇓" /><glyph d="M476 436 542 502Q623 422 682 377Q741 332 809 297V215Q741 180 682 135Q623 90 542 10L476 76Q520 121 557 152Q594 183 632 206H208Q246 183 283 152Q320 121 364 76L298 10Q217 90 158 135Q99 180 31 215V297Q99 332 158 377Q217 422 298 502L364 436Q320 391 283 360Q246 329 208 306H632Q594 329 557 360Q520 391 476 436Z" glyph-name="arrowboth.alt" horiz-adv-x="840" unicode="⇔" /><glyph d="M277 594 363 594Q399 526 444 467Q489 408 571 327L506 262Q456 311 425.5 347Q395 383 374 417V-3Q395 31 425.5 67Q456 103 506 152L571 87Q489 6 444 -53Q399 -112 363 -180H277Q241 -112 196 -53Q151 6 69 87L134 152Q184 103 214.5 67Q245 31 266 -3V417Q245 383 214.5 347Q184 311 134 262L69 327Q151 408 196 467Q241 526 277 594Z" glyph-name="arrowupdn.alt" horiz-adv-x="640" unicode="⇕" /><glyph d="M95 457 153 515Q227 491 301 481Q375 471 487 471V378Q428 377 380.5 381.5Q333 386 285 397L570 113L497 40L213 324Q224 274 228.5 226Q233 178 232 123H139Q139 231 129 306Q119 381 95 457Z" glyph-name="uni21D6" horiz-adv-x="640" unicode="⇖" /><glyph d="M153 378 153 471Q265 471 339 481Q413 491 487 515L545 457Q521 381 511 306Q501 231 501 123H408Q407 178 411.5 226Q416 274 427 324L143 40L70 113L355 397Q307 386 259.5 381.5Q212 377 153 378Z" glyph-name="uni21D7" horiz-adv-x="640" unicode="⇗" /><glyph d="M355 158 70 442L143 515L427 231Q416 281 411.5 329Q407 377 408 432H501Q501 324 511 249Q521 174 545 98L487 40Q413 64 339 74Q265 84 153 84V177Q212 178 259.5 173.5Q307 169 355 158Z" glyph-name="uni21D8" horiz-adv-x="640" unicode="⇘" /><glyph d="M213 231 497 515L570 442L285 158Q333 169 380.5 173.5Q428 178 487 177V84Q375 84 301 74Q227 64 153 40L95 98Q119 174 129 249Q139 324 139 432H232Q233 377 228.5 329Q224 281 213 231Z" glyph-name="uni21D9" horiz-adv-x="640" unicode="⇙" /></font>
</defs>
</svg>
