<?xml version="1.0" standalone="no"?>
<!DOCTYPE svg PUBLIC "-//W3C//DTD SVG 1.1//EN" "http://www.w3.org/Graphics/SVG/1.1/DTD/svg11.dtd" >
<svg xmlns="http://www.w3.org/2000/svg">
<metadata>Generated by IcoMoon</metadata>
<defs>
<font id="novaicons" horiz-adv-x="1024">
<font-face units-per-em="1024" ascent="960" descent="-64" />
<missing-glyph horiz-adv-x="1024" />
<glyph unicode="&#x20;" horiz-adv-x="512" d="" />
<glyph unicode="&#xe900;" glyph-name="arrow down left.1" d="M840.533 678.4l-59.733 59.733-524.8-524.8v153.6h-85.333v-298.667h298.667v85.333h-153.6z" />
<glyph unicode="&#xe901;" glyph-name="arrow-down-left" d="M840.533 678.4l-59.733 59.733-524.8-524.8v153.6h-85.333v-298.667h298.667v85.333h-153.6z" />
<glyph unicode="&#xe902;" glyph-name="arrow-down-right" d="M768 366.933v-153.6l-524.8 524.8-59.733-59.733 524.8-524.8h-153.6v-85.333h298.667v298.667z" />
<glyph unicode="&#xe903;" glyph-name="arrow-down" d="M652.8 268.8l-98.133-98.133v665.6h-85.333v-665.6l-98.133 98.133-59.733-59.733 200.533-200.533 200.533 200.533z" />
<glyph unicode="&#xe904;" glyph-name="arrow-left-1" d="M938.667 452.267h-665.6l98.133 98.133-59.733 59.733-200.533-200.533 200.533-200.533 59.733 59.733-98.133 98.133h665.6z" />
<glyph unicode="&#xe905;" glyph-name="arrow-right-1" d="M712.533 610.133l-59.733-59.733 98.133-98.133h-665.6v-85.333h665.6l-98.133-98.133 59.733-59.733 200.533 200.533z" />
<glyph unicode="&#xe906;" glyph-name="arrow-up-left" d="M840.533 140.8l-524.8 524.8h153.6v85.333h-298.667v-298.667h85.333v153.6l524.8-524.8z" />
<glyph unicode="&#xe907;" glyph-name="arrow-up-right" d="M554.667 750.933v-85.333h153.6l-524.8-524.8 59.733-59.733 524.8 524.8v-153.6h85.333v298.667z" />
<glyph unicode="&#xe908;" glyph-name="add-2" d="M896 452.267h-341.333v341.333h-85.333v-341.333h-341.333v-85.333h341.333v-341.333h85.333v341.333h341.333z" />
<glyph unicode="&#xe909;" glyph-name="close" d="M883.2 721.067l-59.733 59.733-311.467-311.467-311.467 311.467-59.733-59.733 311.467-311.467-311.467-311.467 59.733-59.733 311.467 311.467 311.467-311.467 59.733 59.733-307.2 311.467z" />
<glyph unicode="&#xe90a;" glyph-name="content-filter" d="M768 836.267h-512c-46.933 0-85.333-38.4-85.333-85.333v-170.667c0-12.8 4.267-21.333 12.8-29.867l200.533-200.533v-324.267c0-17.067 8.533-34.133 25.6-38.4 4.267-4.267 12.8-4.267 17.067-4.267 12.8 0 21.333 4.267 29.867 12.8l170.667 170.667c8.533 8.533 12.8 17.067 12.8 29.867v153.6l200.533 200.533c8.533 8.533 12.8 17.067 12.8 29.867v170.667c0 46.933-38.4 85.333-85.333 85.333zM567.467 396.8c-8.533-8.533-12.8-17.067-12.8-29.867v-153.6l-85.333-85.333v238.933c0 12.8-4.267 21.333-12.8 29.867l-200.533 200.533v153.6h512v-153.6l-200.533-200.533z" />
<glyph unicode="&#xe90b;" glyph-name="navigation-drawer-1" d="M170.667 708.267h682.667v-85.333h-682.667v85.333zM170.667 537.6h682.667v-85.333h-682.667v85.333zM170.667 366.933h682.667v-85.333h-682.667v85.333zM170.667 196.267h682.667v-85.333h-682.667v85.333z" />
<glyph unicode="&#xe90c;" glyph-name="search" d="M925.867 55.467l-230.4 230.4c46.933 59.733 72.533 132.267 72.533 209.067 0 89.6-34.133 174.933-98.133 243.2-68.267 64-153.6 98.133-243.2 98.133s-174.933-34.133-243.2-98.133c-64-68.267-98.133-153.6-98.133-243.2s34.133-174.933 98.133-243.2c68.267-64 153.6-98.133 243.2-98.133 76.8 0 149.333 25.6 209.067 72.533l230.4-230.4 59.733 59.733zM426.667 238.933c-68.267 0-132.267 25.6-179.2 76.8-51.2 46.933-76.8 110.933-76.8 179.2s25.6 132.267 76.8 179.2c46.933 51.2 110.933 76.8 179.2 76.8s132.267-25.6 179.2-76.8c51.2-46.933 76.8-110.933 76.8-179.2s-25.6-132.267-76.8-179.2c-46.933-51.2-110.933-76.8-179.2-76.8z" />
<glyph unicode="&#xe90d;" glyph-name="synchronize-3" d="M273.067 648.533c59.733 64 145.067 102.4 238.933 102.4 187.733 0 341.333-153.6 341.333-341.333h85.333c0 234.667-192 426.667-426.667 426.667-115.2 0-221.867-46.933-302.933-123.733l-81.067 81.067v-256h256l-110.933 110.933zM750.933 170.667c-59.733-64-145.067-102.4-238.933-102.4-187.733 0-341.333 153.6-341.333 341.333h-85.333c0-234.667 192-426.667 426.667-426.667 115.2 0 221.867 46.933 302.933 123.733l81.067-81.067v256h-256l110.933-110.933z" />
<glyph unicode="&#xe90e;" glyph-name="text-redo" d="M942.933 652.8l-64-115.2c-55.467 170.667-217.6 298.667-409.6 298.667-234.667 0-426.667-192-426.667-426.667s192-426.667 426.667-426.667v85.333c-187.733 0-341.333 153.6-341.333 341.333s153.6 341.333 341.333 341.333c162.133 0 294.4-110.933 332.8-260.267l-149.333 85.333-42.667-72.533 260.267-149.333 149.333 260.267-76.8 38.4z" />
<glyph unicode="&#xe90f;" glyph-name="text-undo" d="M554.667 836.267c-192 0-354.133-128-409.6-298.667l-64 115.2-72.533-42.667 149.333-260.267 260.267 149.333-42.667 72.533-149.333-85.333c34.133 153.6 166.4 264.533 328.533 264.533 187.733 0 341.333-153.6 341.333-341.333s-153.6-341.333-341.333-341.333v-85.333c234.667 0 426.667 192 426.667 426.667s-192 426.667-426.667 426.667z" />
<glyph unicode="&#xe910;" glyph-name="zoom-in" d="M469.333 665.6h-85.333v-128h-128v-85.333h128v-128h85.333v128h128v85.333h-128zM925.867 55.467l-230.4 230.4c46.933 59.733 72.533 132.267 72.533 209.067 0 89.6-34.133 174.933-98.133 243.2-68.267 64-153.6 98.133-243.2 98.133s-174.933-34.133-243.2-98.133c-64-68.267-98.133-153.6-98.133-243.2s34.133-174.933 98.133-243.2c68.267-64 153.6-98.133 243.2-98.133 76.8 0 149.333 25.6 209.067 72.533l230.4-230.4 59.733 59.733zM426.667 238.933c-68.267 0-132.267 25.6-179.2 76.8-51.2 46.933-76.8 110.933-76.8 179.2s25.6 132.267 76.8 179.2c46.933 51.2 110.933 76.8 179.2 76.8s132.267-25.6 179.2-76.8c51.2-46.933 76.8-110.933 76.8-179.2s-25.6-132.267-76.8-179.2c-46.933-51.2-110.933-76.8-179.2-76.8z" />
<glyph unicode="&#xe911;" glyph-name="zoom-out" d="M256 537.6h341.333v-85.333h-341.333v85.333zM925.867 55.467l-230.4 230.4c46.933 59.733 72.533 132.267 72.533 209.067 0 89.6-34.133 174.933-98.133 243.2-68.267 64-153.6 98.133-243.2 98.133s-174.933-34.133-243.2-98.133c-64-68.267-98.133-153.6-98.133-243.2s34.133-174.933 98.133-243.2c68.267-64 153.6-98.133 243.2-98.133 76.8 0 149.333 25.6 209.067 72.533l230.4-230.4 59.733 59.733zM426.667 238.933c-68.267 0-132.267 25.6-179.2 76.8-51.2 46.933-76.8 110.933-76.8 179.2s25.6 132.267 76.8 179.2c46.933 51.2 110.933 76.8 179.2 76.8s132.267-25.6 179.2-76.8c51.2-46.933 76.8-110.933 76.8-179.2s-25.6-132.267-76.8-179.2c-46.933-51.2-110.933-76.8-179.2-76.8z" />
<glyph unicode="&#xe912;" glyph-name="data-download-8" d="M755.2 465.067l-59.733 59.733-140.8-140.8v452.267h-85.333v-452.267l-140.8 140.8-59.733-59.733 243.2-243.2zM768 153.6v-85.333h-512v85.333h-85.333v-85.333c0-46.933 38.4-85.333 85.333-85.333h512c46.933 0 85.333 38.4 85.333 85.333v85.333h-85.333z" />
<glyph unicode="&#xe913;" glyph-name="data-upload-8" d="M469.333 648.533v-409.6h85.333v409.6l140.8-140.8 59.733 59.733-243.2 243.2-243.2-243.2 59.733-59.733zM768 153.6v-85.333h-512v85.333h-85.333v-85.333c0-46.933 38.4-85.333 85.333-85.333h512c46.933 0 85.333 38.4 85.333 85.333v85.333h-85.333z" />
<glyph unicode="&#xe914;" glyph-name="cursor-arrow-1" d="M840.533 140.8l-226.133 226.133 140.8 140.8c12.8 8.533 17.067 25.6 12.8 38.4s-12.8 25.6-29.867 29.867l-512 170.667c-12.8 8.533-29.867 4.267-42.667-8.533s-17.067-29.867-8.533-42.667l170.667-512c4.267-12.8 17.067-25.6 29.867-29.867 4.267 0 8.533 0 8.533 0 12.8 0 21.333 4.267 29.867 12.8l140.8 140.8 226.133-226.133 59.733 59.733zM401.067 277.333l-119.467 362.667 366.933-123.733-247.467-238.933z" />
<glyph unicode="&#xe915;" glyph-name="cursor-tap" d="M725.333-17.067h-298.667c-17.067 0-29.867 8.533-38.4 25.6l-128 256c-8.533 12.8-4.267 29.867 0 42.667 8.533 8.533 25.6 17.067 38.4 17.067h85.333v256c0 12.8 8.533 25.6 17.067 34.133 12.8 8.533 25.6 12.8 38.4 4.267l128-42.667c17.067-4.267 29.867-21.333 29.867-38.4v-179.2l136.533-34.133c17.067-4.267 34.133-21.333 34.133-42.667v-256c0-25.6-17.067-42.667-42.667-42.667zM452.267 68.267h230.4v179.2l-136.533 34.133c-17.067 4.267-34.133 21.333-34.133 42.667v183.467l-42.667 12.8v-238.933c0-25.6-17.067-42.667-42.667-42.667h-59.733l85.333-170.667zM170.667 580.267h128v-85.333h-128v85.333zM318.458 627.404l-90.509 90.509 60.339 60.339 90.509-90.509-60.339-60.339zM426.667 836.267h85.333v-128h-85.333v128zM559.806 689.106l90.509 90.509 60.339-60.339-90.509-90.509-60.339 60.339zM640 580.267h128v-85.333h-128v85.333z" />
<glyph unicode="&#xe916;" glyph-name="cursor-target-2" d="M981.333 452.267h-132.267c-21.333 153.6-140.8 277.333-294.4 294.4v132.267h-85.333v-132.267c-153.6-17.067-277.333-140.8-294.4-294.4h-132.267v-85.333h132.267c21.333-153.6 140.8-277.333 294.4-294.4v-132.267h85.333v132.267c153.6 21.333 277.333 140.8 294.4 294.4h132.267v85.333zM554.667 157.867v166.4h-85.333v-166.4c-106.667 17.067-192 102.4-209.067 209.067h166.4v85.333h-166.4c17.067 106.667 102.4 192 209.067 209.067v-166.4h85.333v166.4c106.667-17.067 192-102.4 209.067-209.067h-166.4v-85.333h166.4c-17.067-106.667-102.4-192-209.067-209.067z" />
<glyph unicode="&#xe917;" glyph-name="bin" d="M213.333 68.267c0-46.933 38.4-85.333 85.333-85.333h426.667c46.933 0 85.333 38.4 85.333 85.333v512h-597.333v-512zM298.667 494.933h426.667v-426.667h-426.667v426.667zM640 708.267v85.333h-256v-85.333h-256v-85.333h768v85.333zM384 409.6h85.333v-256h-85.333v256zM554.667 409.6h85.333v-256h-85.333v256z" />
<glyph unicode="&#xe918;" glyph-name="delete" d="M814.933 712.533c-81.067 81.067-187.733 123.733-302.933 123.733s-221.867-42.667-302.933-123.733c-81.067-81.067-123.733-187.733-123.733-302.933s42.667-221.867 123.733-302.933c81.067-81.067 187.733-123.733 302.933-123.733s221.867 42.667 302.933 123.733c166.4 166.4 166.4 439.467 0 605.867zM780.8 200.533l-209.067 209.067 209.067 209.067c98.133-123.733 98.133-294.4 0-418.133zM721.067 678.4l-209.067-209.067-209.067 209.067c59.733 46.933 132.267 72.533 209.067 72.533s149.333-25.6 209.067-72.533zM170.667 409.6c0 76.8 25.6 149.333 72.533 209.067l209.067-209.067-209.067-209.067c-46.933 59.733-72.533 132.267-72.533 209.067zM302.933 140.8l209.067 209.067 209.067-209.067c-59.733-46.933-132.267-72.533-209.067-72.533s-149.333 25.6-209.067 72.533z" />
<glyph unicode="&#xe919;" glyph-name="eraser" d="M913.067 563.2l-213.333 213.333c-34.133 34.133-89.6 34.133-119.467 0l-512-512c-34.133-34.133-34.133-85.333 0-119.467l72.533-76.8h396.8l375.467 375.467c17.067 17.067 25.6 38.4 25.6 59.733s-8.533 42.667-25.6 59.733zM503.467 153.6h-328.533l-46.933 46.933 204.8 204.8 213.333-213.333-42.667-38.4zM605.867 256l-213.333 213.333 247.467 247.467 209.067-213.333-243.2-247.467z" />
<glyph unicode="&#xe91a;" glyph-name="subtract-circle-1" d="M512-17.067c-234.667 0-426.667 192-426.667 426.667s192 426.667 426.667 426.667c234.667 0 426.667-192 426.667-426.667s-192-426.667-426.667-426.667zM512 750.933c-187.733 0-341.333-153.6-341.333-341.333s153.6-341.333 341.333-341.333 341.333 153.6 341.333 341.333-153.6 341.333-341.333 341.333zM298.667 452.267h426.667v-85.333h-426.667v85.333z" />
<glyph unicode="&#xe91b;" glyph-name="key-1" d="M866.133 477.867l59.733 59.733-119.467 119.467 59.733 59.733-59.733 59.733-401.067-401.067c-29.867 21.333-68.267 34.133-106.667 34.133-119.467 0-213.333-93.867-213.333-213.333s93.867-213.333 213.333-213.333 213.333 93.867 213.333 213.333c0 46.933-17.067 93.867-42.667 128l153.6 153.6 119.467-119.467 59.733 59.733-119.467 119.467 59.733 59.733 123.733-119.467zM298.667 68.267c-72.533 0-128 55.467-128 128s55.467 128 128 128 128-55.467 128-128-55.467-128-128-128z" />
<glyph unicode="&#xe91c;" glyph-name="power-button-1" d="M640 682.667v-93.867c76.8-42.667 128-128 128-221.867 0-140.8-115.2-256-256-256s-256 115.2-256 256c0 93.867 51.2 174.933 128 221.867v93.867c-123.733-51.2-213.333-170.667-213.333-315.733 0-187.733 153.6-341.333 341.333-341.333s341.333 153.6 341.333 341.333c0 145.067-89.6 264.533-213.333 315.733zM469.333 793.6h85.333v-341.333h-85.333v341.333z" />
<glyph unicode="&#xe91d;" glyph-name="power-button-2" d="M469.333 580.267h85.333v-341.333h-85.333v341.333zM512 836.267c-234.667 0-426.667-192-426.667-426.667s192-426.667 426.667-426.667c234.667 0 426.667 192 426.667 426.667s-192 426.667-426.667 426.667zM512 68.267c-187.733 0-341.333 153.6-341.333 341.333s153.6 341.333 341.333 341.333 341.333-153.6 341.333-341.333-153.6-341.333-341.333-341.333z" />
<glyph unicode="&#xe91e;" glyph-name="lock-1" d="M576 217.6c0-35.346-28.654-64-64-64s-64 28.654-64 64c0 35.346 28.654 64 64 64s64-28.654 64-64zM725.333 452.267v170.667c0 119.467-93.867 213.333-213.333 213.333s-213.333-93.867-213.333-213.333v-170.667c-46.933 0-85.333-38.4-85.333-85.333v-298.667c0-46.933 38.4-85.333 85.333-85.333h426.667c46.933 0 85.333 38.4 85.333 85.333v298.667c0 46.933-38.4 85.333-85.333 85.333zM384 622.933c0 72.533 55.467 128 128 128s128-55.467 128-128v-170.667h-256v170.667zM298.667 68.267v298.667h426.667v-298.667h-426.667z" />
<glyph unicode="&#xe91f;" glyph-name="lock-unlock-1" d="M725.333 452.267h-341.333v170.667c0 72.533 55.467 128 128 128s128-55.467 128-128v-42.667h85.333v42.667c0 119.467-93.867 213.333-213.333 213.333s-213.333-93.867-213.333-213.333v-170.667c-46.933 0-85.333-38.4-85.333-85.333v-298.667c0-46.933 38.4-85.333 85.333-85.333h426.667c46.933 0 85.333 38.4 85.333 85.333v298.667c0 46.933-38.4 85.333-85.333 85.333zM298.667 68.267v298.667h426.667v-298.667h-426.667zM576 217.6c0-35.346-28.654-64-64-64s-64 28.654-64 64c0 35.346 28.654 64 64 64s64-28.654 64-64z" />
<glyph unicode="&#xe920;" glyph-name="battery-charging-1" d="M768 708.267h-85.333v85.333c0 25.6-17.067 42.667-42.667 42.667h-256c-25.6 0-42.667-17.067-42.667-42.667v-85.333h-85.333c-25.6 0-42.667-17.067-42.667-42.667v-597.333c0-46.933 38.4-85.333 85.333-85.333h426.667c46.933 0 85.333 38.4 85.333 85.333v597.333c0 25.6-17.067 42.667-42.667 42.667zM298.667 68.267v554.667h85.333c25.6 0 42.667 17.067 42.667 42.667v85.333h170.667v-85.333c0-25.6 17.067-42.667 42.667-42.667h85.333v-554.667h-426.667zM554.667 580.267l-213.333-256h128v-170.667l213.333 256h-128z" />
<glyph unicode="&#xe921;" glyph-name="data-transfer-mobile-computer-1" d="M981.333 409.6h-256c-25.6 0-42.667-17.067-42.667-42.667v-426.667c0-25.6 17.067-42.667 42.667-42.667h256c25.6 0 42.667 17.067 42.667 42.667v426.667c0 25.6-17.067 42.667-42.667 42.667zM938.667 324.267v-256h-170.667v256h170.667zM810.667 494.933h85.333v256c0 25.6-17.067 42.667-42.667 42.667h-256v-85.333h213.333v-213.333zM298.667 324.267h-85.333v-256c0-25.6 17.067-42.667 42.667-42.667h341.333v85.333h-298.667v213.333zM85.333 494.933v-85.333h341.333v85.333h-128v42.667h170.667c25.6 0 42.667 17.067 42.667 42.667v298.667c0 25.6-17.067 42.667-42.667 42.667h-426.667c-25.6 0-42.667-17.067-42.667-42.667v-298.667c0-25.6 17.067-42.667 42.667-42.667h170.667v-42.667h-128zM426.667 836.267v-170.667h-341.333v170.667h341.333z" />
<glyph unicode="&#xe922;" glyph-name="disc-player" d="M512 537.6c-46.933 0-85.333-38.4-85.333-85.333h170.667c0 46.933-38.4 85.333-85.333 85.333zM512 665.6c119.467 0 213.333-93.867 213.333-213.333h85.333c0 166.4-132.267 298.667-298.667 298.667s-298.667-132.267-298.667-298.667h85.333c0 119.467 93.867 213.333 213.333 213.333zM853.333 25.6h-682.667c-46.933 0-85.333 38.4-85.333 85.333v170.667c0 46.933 38.4 85.333 85.333 85.333h682.667c46.933 0 85.333-38.4 85.333-85.333v-170.667c0-46.933-38.4-85.333-85.333-85.333zM170.667 281.6v-170.667h682.667v170.667h-682.667zM597.333 238.933h170.667v-85.333h-170.667v85.333zM341.333 196.267c0-23.564-19.103-42.667-42.667-42.667s-42.667 19.103-42.667 42.667c0 23.564 19.103 42.667 42.667 42.667s42.667-19.103 42.667-42.667z" />
<glyph unicode="&#xe923;" glyph-name="symbol-bluetooth" d="M512-59.733c-4.267 0-12.8 0-17.067 4.267-17.067 4.267-25.6 21.333-25.6 38.4v324.267l-226.133-226.133-59.733 59.733 268.8 268.8-268.8 268.8 59.733 59.733 226.133-226.133v324.267c0 17.067 8.533 34.133 25.6 38.4 17.067 8.533 34.133 4.267 46.933-8.533l213.333-213.333c17.067-17.067 17.067-42.667 0-59.733l-183.467-183.467 183.467-183.467c17.067-17.067 17.067-42.667 0-59.733l-213.333-213.333c-8.533-8.533-17.067-12.8-29.867-12.8zM554.667 307.2v-221.867l110.933 110.933-110.933 110.933zM554.667 733.867v-221.867l110.933 110.933-110.933 110.933z" />
<glyph unicode="&#xe924;" glyph-name="symbol-wifi" d="M512-17.067c-72.533 0-128 55.467-128 128s55.467 128 128 128c72.533 0 128-55.467 128-128s-55.467-128-128-128zM512 153.6c-25.6 0-42.667-17.067-42.667-42.667s17.067-42.667 42.667-42.667 42.667 17.067 42.667 42.667c0 21.333-17.067 42.667-42.667 42.667zM691.2 290.133c-46.933 51.2-110.933 76.8-179.2 76.8s-132.267-25.6-179.2-76.8l-59.733 59.733c64 68.267 149.333 102.4 238.933 102.4s174.933-34.133 243.2-98.133l-64-64zM934.4 533.333c-110.933 110.933-264.533 174.933-422.4 174.933s-311.467-64-422.4-174.933l-59.733 59.733c128 128 298.667 200.533 482.133 200.533s354.133-72.533 482.133-200.533l-59.733-59.733zM814.933 413.867c-166.4 166.4-439.467 166.4-605.867 0l-59.733 59.733c200.533 200.533 524.8 200.533 725.333 0l-59.733-59.733z" />
<glyph unicode="&#xe925;" glyph-name="data-transfer-1" d="M652.8 439.467l59.733-59.733 200.533 200.533-200.533 200.533-59.733-59.733 98.133-98.133h-494.933v-85.333h494.933zM371.2 379.733l-59.733 59.733-200.533-200.533 200.533-200.533 59.733 59.733-98.133 98.133h494.933v85.333h-494.933z" />
<glyph unicode="&#xe926;" glyph-name="data-transfer-5" d="M482.133 550.4l59.733 59.733-200.533 200.533-200.533-200.533 59.733-59.733 98.133 98.133v-494.933h85.333v494.933zM823.467 268.8l-98.133-98.133v494.933h-85.333v-494.933l-98.133 98.133-59.733-59.733 200.533-200.533 200.533 200.533z" />
<glyph unicode="&#xe927;" glyph-name="link-broken" d="M691.2 772.267v0c-51.2 51.2-132.267 51.2-179.2 0l-149.333-153.6 59.733-59.733 149.333 149.333c17.067 17.067 42.667 17.067 59.733 0l59.733 64zM814.933 529.067c17.067-17.067 17.067-42.667 0-59.733l-149.333-149.333 59.733-59.733 149.333 149.333c51.2 51.2 51.2 132.267 0 179.2l-59.733-59.733zM149.333 230.4l59.733 59.733c-17.067 17.067-17.067 42.667 0 59.733l149.333 149.333-59.733 59.733-149.333-149.333c-51.2-51.2-51.2-132.267 0-179.2v0zM601.6 260.267l-149.333-149.333c-17.067-17.067-42.667-17.067-59.733 0l-59.733-59.733c25.6-25.6 59.733-38.4 89.6-38.4 34.133 0 64 12.8 89.6 38.4l149.333 149.333-59.733 59.733zM605.488 439.71l-60.339 60.339 301.696 301.696 60.339-60.339-301.696-301.696zM177.132 17.387l-60.339 60.339 301.696 301.696 60.339-60.339-301.696-301.696zM844.8 302.933h119.467v-85.333h-119.467v85.333zM618.667 76.8h85.333v-119.467h-85.333v119.467zM320 861.867h85.333v-119.467h-85.333v119.467zM59.733 601.6h119.467v-85.333h-119.467v85.333z" />
<glyph unicode="&#xe928;" glyph-name="link" d="M149.333 230.4l59.733 59.733-29.867 29.867c-17.067 17.067-17.067 42.667 0 59.733l362.667 362.667c8.533 8.533 17.067 12.8 29.867 12.8s21.333-4.267 29.867-12.8l29.867-29.867 59.733 59.733-29.867 29.867c-46.933 46.933-132.267 46.933-179.2 0l-362.667-362.667c-51.2-51.2-51.2-132.267 0-179.2l29.867-29.867zM904.533 558.933l-29.867 29.867-59.733-59.733 29.867-29.867c8.533-8.533 12.8-17.067 12.8-29.867s-4.267-21.333-12.8-29.867l-362.667-362.667c-17.067-17.067-42.667-17.067-59.733 0l-29.867 29.867-59.733-59.733 29.867-29.867c25.6-25.6 55.467-38.4 89.6-38.4s68.267 12.8 89.6 38.4l362.667 362.667c25.6 25.6 38.4 55.467 38.4 89.6s-12.8 68.267-38.4 89.6zM602.902 437.828l-60.339 60.339 301.696 301.696 60.339-60.339-301.696-301.696zM177.6 18.501l-60.373 60.305 301.525 301.867 60.373-60.305-301.525-301.867z" />
<glyph unicode="&#xe929;" glyph-name="share-rss-feed" d="M213.333-17.067c-72.533 0-128 55.467-128 128s55.467 128 128 128 128-55.467 128-128-55.467-128-128-128zM213.333 153.6c-25.6 0-42.667-17.067-42.667-42.667s17.067-42.667 42.667-42.667 42.667 17.067 42.667 42.667-17.067 42.667-42.667 42.667zM640 25.6h-85.333c0 234.667-192 426.667-426.667 426.667v85.333c281.6 0 512-230.4 512-512zM896 25.6h-85.333c0 375.467-307.2 682.667-682.667 682.667v85.333c422.4 0 768-345.6 768-768z" />
<glyph unicode="&#xe92a;" glyph-name="organization-file-arborescence-1" d="M512 452.267h298.667c25.6 0 42.667 17.067 42.667 42.667v256c0 12.8-4.267 21.333-12.8 29.867l-128 128c-8.533 8.533-17.067 12.8-29.867 12.8h-170.667c-25.6 0-42.667-17.067-42.667-42.667v-128h-213.333v170.667h-85.333v-768c0-25.6 17.067-42.667 42.667-42.667h256v-170.667c0-25.6 17.067-42.667 42.667-42.667h298.667c25.6 0 42.667 17.067 42.667 42.667v256c0 12.8-4.267 21.333-12.8 29.867l-128 128c-8.533 8.533-17.067 12.8-29.867 12.8h-170.667c-25.6 0-42.667-17.067-42.667-42.667v-128h-213.333v469.333h213.333v-170.667c0-25.6 17.067-42.667 42.667-42.667zM554.667 836.267h110.933l102.4-102.4v-196.267h-213.333v298.667zM554.667 281.6h110.933l102.4-102.4v-196.267h-213.333v298.667z" />
<glyph unicode="&#xe92b;" glyph-name="organization-flowchart-1" d="M768 324.267c-12.8 0-25.6 0-34.133-4.267l-110.933 217.6c38.4 29.867 59.733 76.8 59.733 128 0 93.867-76.8 170.667-170.667 170.667s-170.667-76.8-170.667-170.667c0-51.2 21.333-98.133 59.733-128l-106.667-217.6c-12.8 4.267-25.6 4.267-38.4 4.267-93.867 0-170.667-76.8-170.667-170.667s76.8-170.667 170.667-170.667c81.067 0 145.067 55.467 166.4 128h183.467c17.067-72.533 85.333-128 166.4-128 93.867 0 170.667 76.8 170.667 170.667s-81.067 170.667-174.933 170.667zM512 750.933c46.933 0 85.333-38.4 85.333-85.333s-38.4-85.333-85.333-85.333c-46.933 0-85.333 38.4-85.333 85.333s38.4 85.333 85.333 85.333zM477.867 499.2c8.533-4.267 21.333-4.267 34.133-4.267s25.6 0 34.133 4.267l106.667-217.6c-25.6-21.333-42.667-51.2-51.2-85.333h-179.2c-8.533 34.133-25.6 64-51.2 85.333l106.667 217.6zM256 68.267c-46.933 0-85.333 38.4-85.333 85.333s38.4 85.333 85.333 85.333 85.333-38.4 85.333-85.333-38.4-85.333-85.333-85.333zM768 68.267c-46.933 0-85.333 38.4-85.333 85.333s38.4 85.333 85.333 85.333 85.333-38.4 85.333-85.333-38.4-85.333-85.333-85.333z" />
<glyph unicode="&#xe92c;" glyph-name="organization-flowchart-3" d="M938.667 452.267h-170.667c0 72.533-55.467 128-128 128h-128c-25.6 0-42.667 17.067-42.667 42.667v42.667h213.333c25.6 0 42.667 17.067 42.667 42.667v170.667c0 25.6-17.067 42.667-42.667 42.667h-512c-25.6 0-42.667-17.067-42.667-42.667v-170.667c0-25.6 17.067-42.667 42.667-42.667h213.333v-42.667c0-72.533 55.467-128 128-128h128c25.6 0 42.667-17.067 42.667-42.667h-256c-25.6 0-42.667-17.067-42.667-42.667v-170.667c0-25.6 17.067-42.667 42.667-42.667h298.667v-85.333c0-25.6-17.067-42.667-42.667-42.667h-42.667v42.667c0 25.6-17.067 42.667-42.667 42.667h-512c-25.6 0-42.667-17.067-42.667-42.667v-170.667c0-25.6 17.067-42.667 42.667-42.667h512c25.6 0 42.667 17.067 42.667 42.667v42.667h42.667c72.533 0 128 55.467 128 128v85.333h128c25.6 0 42.667 17.067 42.667 42.667v170.667c0 25.6-17.067 42.667-42.667 42.667zM213.333 836.267h426.667v-85.333h-426.667v85.333zM128-17.067v85.333h384v-85.333h-384zM896 281.6h-426.667v85.333h426.667v-85.333z" />
<glyph unicode="&#xe92d;" glyph-name="organization-hierarchy-1" d="M853.333 230.4v93.867c0 72.533-55.467 128-128 128h-170.667v93.867c59.733 17.067 106.667 76.8 106.667 140.8 0 81.067-68.267 149.333-149.333 149.333s-149.333-68.267-149.333-149.333c0-68.267 46.933-123.733 106.667-140.8v-93.867h-170.667c-72.533 0-128-55.467-128-128v-93.867c-51.2-17.067-85.333-64-85.333-119.467 0-72.533 55.467-128 128-128s128 55.467 128 128c0 55.467-34.133 102.4-85.333 119.467v93.867c0 25.6 17.067 42.667 42.667 42.667h170.667v-136.533c-51.2-17.067-85.333-64-85.333-119.467 0-72.533 55.467-128 128-128s128 55.467 128 128c0 55.467-34.133 102.4-85.333 119.467v136.533h170.667c25.6 0 42.667-17.067 42.667-42.667v-93.867c-51.2-17.067-85.333-64-85.333-119.467 0-72.533 55.467-128 128-128s128 55.467 128 128c0 55.467-34.133 102.4-85.333 119.467zM448 686.933c0 34.133 29.867 64 64 64s64-29.867 64-64-29.867-64-64-64-64 29.867-64 64zM213.333 68.267c-25.6 0-42.667 17.067-42.667 42.667s17.067 42.667 42.667 42.667 42.667-17.067 42.667-42.667-17.067-42.667-42.667-42.667zM512 68.267c-25.6 0-42.667 17.067-42.667 42.667s17.067 42.667 42.667 42.667 42.667-17.067 42.667-42.667-17.067-42.667-42.667-42.667zM810.667 68.267c-25.6 0-42.667 17.067-42.667 42.667s17.067 42.667 42.667 42.667 42.667-17.067 42.667-42.667-17.067-42.667-42.667-42.667z" />
<glyph unicode="&#xe92e;" glyph-name="share" d="M768 324.267c-51.2 0-98.133-21.333-128-59.733l-217.6 106.667c4.267 12.8 4.267 25.6 4.267 38.4s0 25.6-4.267 34.133l217.6 110.933c29.867-34.133 76.8-59.733 128-59.733 93.867 0 170.667 76.8 170.667 170.667s-76.8 170.667-170.667 170.667-170.667-76.8-170.667-170.667c0-12.8 0-25.6 4.267-34.133l-217.6-110.933c-29.867 38.4-76.8 59.733-128 59.733-93.867 0-170.667-76.8-170.667-170.667s76.8-170.667 170.667-170.667c51.2 0 98.133 21.333 128 59.733l217.6-106.667c-4.267-12.8-4.267-25.6-4.267-38.4 0-93.867 76.8-170.667 170.667-170.667s170.667 76.8 170.667 170.667c0 93.867-76.8 170.667-170.667 170.667zM768 750.933c46.933 0 85.333-38.4 85.333-85.333s-38.4-85.333-85.333-85.333-85.333 38.4-85.333 85.333c0 46.933 38.4 85.333 85.333 85.333zM256 324.267c-46.933 0-85.333 38.4-85.333 85.333s38.4 85.333 85.333 85.333 85.333-38.4 85.333-85.333c0-46.933-38.4-85.333-85.333-85.333zM768 68.267c-46.933 0-85.333 38.4-85.333 85.333s38.4 85.333 85.333 85.333 85.333-38.4 85.333-85.333c0-46.933-38.4-85.333-85.333-85.333z" />
<glyph unicode="&#xe92f;" glyph-name="content-view-column" d="M853.333 25.6h-85.333c-46.933 0-85.333 38.4-85.333 85.333v597.333c0 46.933 38.4 85.333 85.333 85.333h85.333c46.933 0 85.333-38.4 85.333-85.333v-597.333c0-46.933-38.4-85.333-85.333-85.333zM768 708.267v-597.333h85.333v597.333h-85.333zM554.667 25.6h-85.333c-46.933 0-85.333 38.4-85.333 85.333v597.333c0 46.933 38.4 85.333 85.333 85.333h85.333c46.933 0 85.333-38.4 85.333-85.333v-597.333c0-46.933-38.4-85.333-85.333-85.333zM469.333 708.267v-597.333h85.333v597.333h-85.333zM256 25.6h-85.333c-46.933 0-85.333 38.4-85.333 85.333v597.333c0 46.933 38.4 85.333 85.333 85.333h85.333c46.933 0 85.333-38.4 85.333-85.333v-597.333c0-46.933-38.4-85.333-85.333-85.333zM170.667 708.267v-597.333h85.333v597.333h-85.333z" />
<glyph unicode="&#xe930;" glyph-name="content-view-headline" d="M810.667 580.267h-597.333c-46.933 0-85.333 38.4-85.333 85.333v85.333c0 46.933 38.4 85.333 85.333 85.333h597.333c46.933 0 85.333-38.4 85.333-85.333v-85.333c0-46.933-38.4-85.333-85.333-85.333zM213.333 750.933v-85.333h597.333v85.333h-597.333zM810.667 281.6h-597.333c-46.933 0-85.333 38.4-85.333 85.333v85.333c0 46.933 38.4 85.333 85.333 85.333h597.333c46.933 0 85.333-38.4 85.333-85.333v-85.333c0-46.933-38.4-85.333-85.333-85.333zM213.333 452.267v-85.333h597.333v85.333h-597.333zM810.667-17.067h-597.333c-46.933 0-85.333 38.4-85.333 85.333v85.333c0 46.933 38.4 85.333 85.333 85.333h597.333c46.933 0 85.333-38.4 85.333-85.333v-85.333c0-46.933-38.4-85.333-85.333-85.333zM213.333 153.6v-85.333h597.333v85.333h-597.333z" />
<glyph unicode="&#xe931;" glyph-name="content-view-list" d="M853.333 580.267h-384c-46.933 0-85.333 38.4-85.333 85.333v85.333c0 46.933 38.4 85.333 85.333 85.333h384c46.933 0 85.333-38.4 85.333-85.333v-85.333c0-46.933-38.4-85.333-85.333-85.333zM469.333 750.933v-85.333h384v85.333h-384zM853.333 281.6h-384c-46.933 0-85.333 38.4-85.333 85.333v85.333c0 46.933 38.4 85.333 85.333 85.333h384c46.933 0 85.333-38.4 85.333-85.333v-85.333c0-46.933-38.4-85.333-85.333-85.333zM469.333 452.267v-85.333h384v85.333h-384zM853.333-17.067h-384c-46.933 0-85.333 38.4-85.333 85.333v85.333c0 46.933 38.4 85.333 85.333 85.333h384c46.933 0 85.333-38.4 85.333-85.333v-85.333c0-46.933-38.4-85.333-85.333-85.333zM469.333 153.6v-85.333h384v85.333h-384zM256 580.267h-85.333c-46.933 0-85.333 38.4-85.333 85.333v85.333c0 46.933 38.4 85.333 85.333 85.333h85.333c46.933 0 85.333-38.4 85.333-85.333v-85.333c0-46.933-38.4-85.333-85.333-85.333zM170.667 750.933v-85.333h85.333v85.333h-85.333zM256 281.6h-85.333c-46.933 0-85.333 38.4-85.333 85.333v85.333c0 46.933 38.4 85.333 85.333 85.333h85.333c46.933 0 85.333-38.4 85.333-85.333v-85.333c0-46.933-38.4-85.333-85.333-85.333zM170.667 452.267v-85.333h85.333v85.333h-85.333zM256-17.067h-85.333c-46.933 0-85.333 38.4-85.333 85.333v85.333c0 46.933 38.4 85.333 85.333 85.333h85.333c46.933 0 85.333-38.4 85.333-85.333v-85.333c0-46.933-38.4-85.333-85.333-85.333zM170.667 153.6v-85.333h85.333v85.333h-85.333z" />
<glyph unicode="&#xe932;" glyph-name="content-view-module-2" d="M384 452.267h-213.333c-46.933 0-85.333 38.4-85.333 85.333v213.333c0 46.933 38.4 85.333 85.333 85.333h213.333c46.933 0 85.333-38.4 85.333-85.333v-213.333c0-46.933-38.4-85.333-85.333-85.333zM170.667 750.933v-213.333h213.333v213.333h-213.333zM853.333 452.267h-213.333c-46.933 0-85.333 38.4-85.333 85.333v213.333c0 46.933 38.4 85.333 85.333 85.333h213.333c46.933 0 85.333-38.4 85.333-85.333v-213.333c0-46.933-38.4-85.333-85.333-85.333zM640 750.933v-213.333h213.333v213.333h-213.333zM384-17.067h-213.333c-46.933 0-85.333 38.4-85.333 85.333v213.333c0 46.933 38.4 85.333 85.333 85.333h213.333c46.933 0 85.333-38.4 85.333-85.333v-213.333c0-46.933-38.4-85.333-85.333-85.333zM170.667 281.6v-213.333h213.333v213.333h-213.333zM853.333-17.067h-213.333c-46.933 0-85.333 38.4-85.333 85.333v213.333c0 46.933 38.4 85.333 85.333 85.333h213.333c46.933 0 85.333-38.4 85.333-85.333v-213.333c0-46.933-38.4-85.333-85.333-85.333zM640 281.6v-213.333h213.333v213.333h-213.333z" />
<glyph unicode="&#xe933;" glyph-name="hide" d="M972.8 430.933c-4.267 4.267-64 98.133-174.933 170.667l170.667 170.667-59.733 59.733-832-832 59.733-59.733 217.6 217.6c46.933-12.8 98.133-25.6 153.6-25.6 290.133 0 456.533 238.933 460.8 247.467l17.067 21.333-12.8 29.867zM512 221.867c-29.867 0-55.467 4.267-85.333 8.533l81.067 81.067c12.8-4.267 21.333-4.267 34.133-4.267 72.533 0 128 55.467 128 128 0 12.8 0 21.333-4.267 34.133l72.533 72.533c72.533-42.667 123.733-98.133 149.333-132.267-51.2-55.467-183.467-187.733-375.467-187.733zM196.267 243.2l64 64c-55.467 38.4-98.133 81.067-119.467 106.667 46.933 55.467 179.2 196.267 371.2 196.267 17.067 0 29.867 0 46.933-4.267l72.533 72.533c-38.4 8.533-76.8 12.8-119.467 12.8-290.133 0-456.533-247.467-460.8-260.267l-17.067-21.333 17.067-21.333c0-8.533 51.2-81.067 145.067-145.067z" />
<glyph unicode="&#xe934;" glyph-name="navigation-show-more-horizontal" d="M298.667 409.6c0-47.128-38.205-85.333-85.333-85.333s-85.333 38.205-85.333 85.333c0 47.128 38.205 85.333 85.333 85.333s85.333-38.205 85.333-85.333zM597.333 409.6c0-47.128-38.205-85.333-85.333-85.333s-85.333 38.205-85.333 85.333c0 47.128 38.205 85.333 85.333 85.333s85.333-38.205 85.333-85.333zM896 409.6c0-47.128-38.205-85.333-85.333-85.333s-85.333 38.205-85.333 85.333c0 47.128 38.205 85.333 85.333 85.333s85.333-38.205 85.333-85.333z" />
<glyph unicode="&#xe935;" glyph-name="navigation-show-more-vertical" d="M597.333 708.267c0-47.128-38.205-85.333-85.333-85.333s-85.333 38.205-85.333 85.333c0 47.128 38.205 85.333 85.333 85.333s85.333-38.205 85.333-85.333zM597.333 409.6c0-47.128-38.205-85.333-85.333-85.333s-85.333 38.205-85.333 85.333c0 47.128 38.205 85.333 85.333 85.333s85.333-38.205 85.333-85.333zM597.333 110.933c0-47.128-38.205-85.333-85.333-85.333s-85.333 38.205-85.333 85.333c0 47.128 38.205 85.333 85.333 85.333s85.333-38.205 85.333-85.333z" />
<glyph unicode="&#xe936;" glyph-name="control-cross-over" d="M840.533 465.067l157.867 157.867-157.867 157.867-59.733-59.733 55.467-55.467h-110.933c-128 0-209.067-89.6-277.333-183.467-68.267 93.867-149.333 183.467-277.333 183.467h-170.667v-85.333h170.667c98.133 0 162.133-81.067 226.133-170.667-64-89.6-128-170.667-226.133-170.667h-170.667v-85.333h170.667c128 0 209.067 89.6 277.333 183.467 68.267-93.867 149.333-183.467 277.333-183.467h110.933l-55.467-55.467 59.733-59.733 157.867 157.867-157.867 157.867-59.733-59.733 55.467-55.467h-110.933c-98.133 0-162.133 81.067-226.133 170.667 64 89.6 128 170.667 226.133 170.667h110.933l-55.467-55.467 59.733-59.733z" />
<glyph unicode="&#xe937;" glyph-name="control-zigzag-1" d="M682.667 409.6h-341.333c-46.933 0-85.333 38.4-85.333 85.333s38.4 85.333 85.333 85.333h324.267l-55.467-55.467 59.733-59.733 157.867 157.867-157.867 157.867-59.733-59.733 55.467-55.467h-324.267c-93.867 0-170.667-76.8-170.667-170.667s76.8-170.667 170.667-170.667h341.333c46.933 0 85.333-38.4 85.333-85.333s-38.4-85.333-85.333-85.333h-512v-85.333h512c93.867 0 170.667 76.8 170.667 170.667s-76.8 170.667-170.667 170.667z" />
<glyph unicode="&#xe938;" glyph-name="control-zigzag-2" d="M610.133 652.8l59.733-59.733 55.467 55.467v-452.267c0-46.933-38.4-85.333-85.333-85.333s-85.333 38.4-85.333 85.333v341.333c0 93.867-76.8 170.667-170.667 170.667s-170.667-76.8-170.667-170.667v-366.933l-55.467 55.467-59.733-59.733 157.867-157.867 157.867 157.867-59.733 59.733-55.467-55.467v366.933c0 46.933 38.4 85.333 85.333 85.333s85.333-38.4 85.333-85.333v-341.333c0-93.867 76.8-170.667 170.667-170.667s170.667 76.8 170.667 170.667v452.267l55.467-55.467 59.733 59.733-157.867 157.867-157.867-157.867z" />
<glyph unicode="&#xe939;" glyph-name="cursor-move-all-direction-2" d="M768 597.333l-59.733-59.733 85.333-85.333h-238.933v238.933l85.333-85.333 59.733 59.733-187.733 187.733-187.733-187.733 59.733-59.733 85.333 85.333v-238.933h-238.933l85.333 85.333-59.733 59.733-187.733-187.733 187.733-187.733 59.733 59.733-85.333 85.333h238.933v-238.933l-85.333 85.333-59.733-59.733 187.733-187.733 187.733 187.733-59.733 59.733-85.333-85.333v238.933h238.933l-85.333-85.333 59.733-59.733 187.733 187.733z" />
<glyph unicode="&#xe93a;" glyph-name="expand-2" d="M341.333 68.267h-110.933l281.6 281.6 281.6-281.6h-110.933v-85.333h256v256h-85.333v-110.933l-281.6 281.6 281.6 281.6v-110.933h85.333v256h-256v-85.333h110.933l-281.6-281.6-281.6 281.6h110.933v85.333h-256v-256h85.333v110.933l281.6-281.6-281.6-281.6v110.933h-85.333v-256h256z" />
<glyph unicode="&#xe93b;" glyph-name="expand-horizontal-7" d="M512 85.333l-226.133 226.133-59.733-59.733 285.867-285.867 285.867 285.867-59.733 59.733zM226.133 567.467l59.733-59.733 226.133 226.133 226.133-226.133 59.733 59.733-285.867 285.867z" />
<glyph unicode="&#xe93c;" glyph-name="expand-vertical-7" d="M354.133 695.467l-285.867-285.867 285.867-285.867 59.733 59.733-226.133 226.133 226.133 226.133zM610.133 635.733l226.133-226.133-226.133-226.133 59.733-59.733 285.867 285.867-285.867 285.867z" />
<glyph unicode="&#xe93d;" glyph-name="move-down-1" d="M469.333 836.267v-537.6l-98.133 98.133-59.733-59.733 200.533-200.533 200.533 200.533-59.733 59.733-98.133-98.133v537.6zM170.667 68.267h682.667v-85.333h-682.667v85.333z" />
<glyph unicode="&#xe93e;" glyph-name="move-left-1" d="M938.667 452.267h-537.6l98.133 98.133-59.733 59.733-200.533-200.533 200.533-200.533 59.733 59.733-98.133 98.133h537.6zM85.333 750.933h85.333v-682.667h-85.333v682.667z" />
<glyph unicode="&#xe93f;" glyph-name="move-right-1" d="M524.8 268.8l59.733-59.733 200.533 200.533-200.533 200.533-59.733-59.733 98.133-98.133h-537.6v-85.333h537.6zM853.333 750.933h85.333v-682.667h-85.333v682.667z" />
<glyph unicode="&#xe940;" glyph-name="move-to-bottom" d="M768 793.6h-256v-85.333h256c46.933 0 85.333-38.4 85.333-85.333v-426.667c0-46.933-38.4-85.333-85.333-85.333h-68.267l55.467 55.467-59.733 59.733-157.867-157.867 157.867-157.867 59.733 59.733-55.467 55.467h68.267c93.867 0 170.667 76.8 170.667 170.667v426.667c0 93.867-76.8 170.667-170.667 170.667zM384 878.933h-256c-25.6 0-42.667-17.067-42.667-42.667v-170.667c0-25.6 17.067-42.667 42.667-42.667h256c25.6 0 42.667 17.067 42.667 42.667v170.667c0 25.6-17.067 42.667-42.667 42.667zM384 537.6h-256c-25.6 0-42.667-17.067-42.667-42.667v-170.667c0-25.6 17.067-42.667 42.667-42.667h256c25.6 0 42.667 17.067 42.667 42.667v170.667c0 25.6-17.067 42.667-42.667 42.667zM341.333 366.933h-170.667v85.333h170.667v-85.333zM384 196.267h-256c-25.6 0-42.667-17.067-42.667-42.667v-170.667c0-25.6 17.067-42.667 42.667-42.667h256c25.6 0 42.667 17.067 42.667 42.667v170.667c0 25.6-17.067 42.667-42.667 42.667zM341.333 25.6h-170.667v85.333h170.667v-85.333z" />
<glyph unicode="&#xe941;" glyph-name="move-to-top" d="M768 793.6h-68.267l55.467 55.467-59.733 59.733-157.867-157.867 157.867-157.867 59.733 59.733-55.467 55.467h68.267c46.933 0 85.333-38.4 85.333-85.333v-426.667c0-46.933-38.4-85.333-85.333-85.333h-256v-85.333h256c93.867 0 170.667 76.8 170.667 170.667v426.667c0 93.867-76.8 170.667-170.667 170.667zM384 196.267h-256c-25.6 0-42.667-17.067-42.667-42.667v-170.667c0-25.6 17.067-42.667 42.667-42.667h256c25.6 0 42.667 17.067 42.667 42.667v170.667c0 25.6-17.067 42.667-42.667 42.667zM384 537.6h-256c-25.6 0-42.667-17.067-42.667-42.667v-170.667c0-25.6 17.067-42.667 42.667-42.667h256c25.6 0 42.667 17.067 42.667 42.667v170.667c0 25.6-17.067 42.667-42.667 42.667zM341.333 366.933h-170.667v85.333h170.667v-85.333zM384 878.933h-256c-25.6 0-42.667-17.067-42.667-42.667v-170.667c0-25.6 17.067-42.667 42.667-42.667h256c25.6 0 42.667 17.067 42.667 42.667v170.667c0 25.6-17.067 42.667-42.667 42.667zM341.333 708.267h-170.667v85.333h170.667v-85.333z" />
<glyph unicode="&#xe942;" glyph-name="move-up-1" d="M554.667-17.067v537.6l98.133-98.133 59.733 59.733-200.533 200.533-200.533-200.533 59.733-59.733 98.133 98.133v-537.6zM170.667 836.267h682.667v-85.333h-682.667v85.333z" />
<glyph unicode="&#xe943;" glyph-name="shrink-1" d="M341.333 179.2v-110.933h85.333v256h-256v-85.333h110.933l-226.133-226.133 59.733-59.733zM853.333 580.267h-110.933l226.133 226.133-59.733 59.733-226.133-226.133v110.933h-85.333v-256h256zM682.667 179.2l226.133-226.133 59.733 59.733-226.133 226.133h110.933v85.333h-256v-256h85.333zM170.667 580.267v-85.333h256v256h-85.333v-110.933l-226.133 226.133-59.733-59.733 226.133-226.133z" />
<glyph unicode="&#xe944;" glyph-name="shrink-horizontal-1" d="M226.133 507.733l55.467-55.467h-281.6v-85.333h281.6l-55.467-55.467 59.733-59.733 157.867 157.867-157.867 157.867zM797.867 507.733l-59.733 59.733-157.867-157.867 157.867-157.867 59.733 59.733-55.467 55.467h281.6v85.333h-281.6z" />
<glyph unicode="&#xe945;" glyph-name="shrink-horizontal-4" d="M866.133 695.467l-285.867-285.867 285.867-285.867 59.733 59.733-226.133 226.133 226.133 226.133zM98.133 635.733l226.133-226.133-226.133-226.133 59.733-59.733 285.867 285.867-285.867 285.867z" />
<glyph unicode="&#xe946;" glyph-name="shrink-vertical-4" d="M512 597.333l-226.133 226.133-59.733-59.733 285.867-285.867 285.867 285.867-59.733 59.733zM226.133 55.467l59.733-59.733 226.133 226.133 226.133-226.133 59.733 59.733-285.867 285.867z" />
<glyph unicode="&#xe947;" glyph-name="interface-information" d="M512-17.067c-234.667 0-426.667 192-426.667 426.667s192 426.667 426.667 426.667c234.667 0 426.667-192 426.667-426.667s-192-426.667-426.667-426.667zM512 750.933c-187.733 0-341.333-153.6-341.333-341.333s153.6-341.333 341.333-341.333 341.333 153.6 341.333 341.333-153.6 341.333-341.333 341.333zM554.667 281.6v170.667c0 25.6-17.067 42.667-42.667 42.667h-85.333v-85.333h42.667v-128h-85.333v-85.333h256v85.333h-85.333zM563.2 580.267c0-28.277-22.923-51.2-51.2-51.2s-51.2 22.923-51.2 51.2c0 28.277 22.923 51.2 51.2 51.2s51.2-22.923 51.2-51.2z" />
<glyph unicode="&#xe948;" glyph-name="interface-question-mark" d="M512-17.067c-234.667 0-426.667 192-426.667 426.667s192 426.667 426.667 426.667c234.667 0 426.667-192 426.667-426.667s-192-426.667-426.667-426.667zM512 750.933c-187.733 0-341.333-153.6-341.333-341.333s153.6-341.333 341.333-341.333 341.333 153.6 341.333 341.333-153.6 341.333-341.333 341.333zM554.667 281.6h-85.333v128h42.667c46.933 0 85.333 38.4 85.333 85.333s-38.4 85.333-85.333 85.333c-46.933 0-85.333-38.4-85.333-85.333h-85.333c0 93.867 76.8 170.667 170.667 170.667s170.667-76.8 170.667-170.667c0-81.067-55.467-145.067-128-166.4v-46.933zM563.2 196.267c0-28.277-22.923-51.2-51.2-51.2s-51.2 22.923-51.2 51.2c0 28.277 22.923 51.2 51.2 51.2s51.2-22.923 51.2-51.2z" />
<glyph unicode="&#xe949;" glyph-name="location-direction-1" d="M793.6 72.533l-281.6 119.467-281.6-119.467c-17.067-8.533-34.133-4.267-46.933 8.533s-17.067 29.867-8.533 46.933l298.667 640c8.533 17.067 21.333 25.6 38.4 25.6s29.867-8.533 38.4-25.6l298.667-640c8.533-17.067 4.267-34.133-8.533-46.933s-29.867-17.067-46.933-8.533zM512 281.6c4.267 0 12.8 0 17.067-4.267l196.267-85.333-213.333 456.533-213.333-452.267 196.267 85.333c4.267 0 12.8 0 17.067 0z" />
<glyph unicode="&#xe94a;" glyph-name="location-map" d="M878.933 162.133c12.8 8.533 17.067 21.333 17.067 34.133v597.333c0 17.067-8.533 29.867-21.333 38.4s-29.867 8.533-42.667 0l-230.4-153.6-192 149.333c-4.267 4.267-17.067 8.533-25.6 8.533s-17.067-4.267-25.6-8.533l-256-170.667c-8.533-8.533-17.067-21.333-17.067-34.133v-597.333c0-17.067 8.533-29.867 21.333-38.4 8.533-4.267 12.8-4.267 21.333-4.267s17.067 4.267 25.6 8.533l230.4 153.6 187.733-149.333c8.533-4.267 17.067-8.533 25.6-8.533 12.8 0 17.067 4.267 21.333 8.533l260.267 166.4zM170.667 601.6l170.667 115.2v-494.933l-170.667-115.2v494.933zM554.667 115.2l-128 102.4v486.4l128-102.4v-486.4zM810.667 217.6l-170.667-115.2v499.2l170.667 115.2v-499.2z" />
<glyph unicode="&#xe94b;" glyph-name="location-pin-2" d="M512 409.6c-72.533 0-128 55.467-128 128s55.467 128 128 128c72.533 0 128-55.467 128-128s-55.467-128-128-128zM512 580.267c-25.6 0-42.667-17.067-42.667-42.667s17.067-42.667 42.667-42.667 42.667 17.067 42.667 42.667c0 25.6-17.067 42.667-42.667 42.667zM512-46.933c-102.4 136.533-298.667 418.133-298.667 584.533s132.267 298.667 298.667 298.667c166.4 0 298.667-132.267 298.667-298.667s-196.267-448-298.667-584.533zM512 750.933c-119.467 0-213.333-93.867-213.333-213.333 0-110.933 132.267-324.267 213.333-439.467 81.067 115.2 213.333 328.533 213.333 439.467 0 119.467-93.867 213.333-213.333 213.333z" />
<glyph unicode="&#xe94c;" glyph-name="flash-off" d="M691.2 409.6h29.867l-12.8-17.067 59.733-59.733 76.8 93.867c8.533 12.8 12.8 29.867 4.267 46.933-4.267 12.8-21.333 21.333-38.4 21.333h-204.8l85.333-85.333zM200.533 780.8l-59.733-59.733 166.4-166.4-128-157.867c-8.533-12.8-12.8-29.867-4.267-46.933s21.333-25.6 38.4-25.6h213.333v-298.667c0-17.067 12.8-34.133 29.867-38.4 4.267 0 8.533-4.267 12.8-4.267 12.8 0 25.6 4.267 34.133 17.067l157.867 200.533 162.133-162.133 59.733 59.733-682.667 682.667zM302.933 409.6l64 81.067 81.067-81.067h-145.067zM512 149.333v200.533l89.6-89.6-89.6-110.933zM477.867 627.2l34.133 42.667v-81.067l85.333-85.333v290.133c0 17.067-12.8 34.133-29.867 38.4s-34.133 0-46.933-12.8l-106.667-132.267 64-59.733z" />
<glyph unicode="&#xe94d;" glyph-name="flash" d="M469.333-17.067c-4.267 0-8.533 0-12.8 4.267-17.067 4.267-29.867 21.333-29.867 38.4v298.667h-213.333c-17.067 0-29.867 8.533-38.4 25.6-8.533 12.8-4.267 34.133 4.267 46.933l341.333 426.667c12.8 12.8 29.867 21.333 46.933 12.8s29.867-25.6 29.867-42.667v-298.667h213.333c17.067 0 29.867-8.533 38.4-25.6 8.533-12.8 4.267-34.133-4.267-46.933l-341.333-426.667c-8.533-8.533-21.333-12.8-34.133-12.8zM302.933 409.6h166.4c25.6 0 42.667-17.067 42.667-42.667v-221.867l209.067 264.533h-166.4c-25.6 0-42.667 17.067-42.667 42.667v217.6l-209.067-260.267z" />
<glyph unicode="&#xe94e;" glyph-name="interface-alert-triangle" d="M896-17.067h-768c-12.8 0-29.867 8.533-38.4 21.333s-8.533 29.867 0 42.667l384 768c12.8 29.867 59.733 29.867 76.8 0l384-768c8.533-12.8 4.267-29.867 0-42.667-8.533-12.8-25.6-21.333-38.4-21.333zM196.267 68.267h631.467l-315.733 631.467-315.733-631.467zM469.333 494.933h85.333v-256h-85.333v256zM563.2 153.6c0-28.277-22.923-51.2-51.2-51.2s-51.2 22.923-51.2 51.2c0 28.277 22.923 51.2 51.2 51.2s51.2-22.923 51.2-51.2z" />
<glyph unicode="&#xe94f;" glyph-name="settings-1" d="M810.667 537.6c72.533 0 128 55.467 128 128s-55.467 128-128 128c-55.467 0-102.4-34.133-119.467-85.333h-605.867v-85.333h605.867c17.067-51.2 64-85.333 119.467-85.333zM810.667 708.267c25.6 0 42.667-17.067 42.667-42.667s-17.067-42.667-42.667-42.667-42.667 17.067-42.667 42.667c0 25.6 17.067 42.667 42.667 42.667zM384 537.6c-55.467 0-102.4-34.133-119.467-85.333h-179.2v-85.333h179.2c17.067-51.2 64-85.333 119.467-85.333s102.4 34.133 119.467 85.333h435.2v85.333h-435.2c-17.067 51.2-64 85.333-119.467 85.333zM384 366.933c-25.6 0-42.667 17.067-42.667 42.667s17.067 42.667 42.667 42.667 42.667-17.067 42.667-42.667c0-25.6-17.067-42.667-42.667-42.667zM810.667 281.6c-55.467 0-102.4-34.133-119.467-85.333h-605.867v-85.333h605.867c17.067-51.2 64-85.333 119.467-85.333 72.533 0 128 55.467 128 128s-55.467 128-128 128zM810.667 110.933c-25.6 0-42.667 17.067-42.667 42.667s17.067 42.667 42.667 42.667 42.667-17.067 42.667-42.667c0-25.6-17.067-42.667-42.667-42.667z" />
<glyph unicode="&#xe950;" glyph-name="wrench" d="M810.667 537.6c0 128-81.067 238.933-200.533 281.6l-55.467 21.333v-260.267c0-25.6-17.067-42.667-42.667-42.667s-42.667 17.067-42.667 42.667v260.267l-55.467-21.333c-119.467-42.667-200.533-153.6-200.533-281.6 0-119.467 68.267-221.867 170.667-268.8v-285.867h85.333v256h85.333v-256h85.333v285.867c102.4 46.933 170.667 149.333 170.667 268.8zM512 324.267c-119.467 0-213.333 93.867-213.333 213.333 0 68.267 34.133 132.267 85.333 170.667v-128c0-72.533 55.467-128 128-128s128 55.467 128 128v128c51.2-38.4 85.333-102.4 85.333-170.667 0-119.467-93.867-213.333-213.333-213.333z" />
<glyph unicode="&#xe951;" glyph-name="calculator-1" d="M725.333 836.267h-426.667c-46.933 0-85.333-38.4-85.333-85.333v-682.667c0-46.933 38.4-85.333 85.333-85.333h426.667c46.933 0 85.333 38.4 85.333 85.333v682.667c0 46.933-38.4 85.333-85.333 85.333zM725.333 750.933v-170.667h-426.667v170.667h426.667zM298.667 68.267v426.667h426.667v-426.667h-426.667zM426.667 409.6c0-23.564-19.103-42.667-42.667-42.667s-42.667 19.103-42.667 42.667c0 23.564 19.103 42.667 42.667 42.667s42.667-19.103 42.667-42.667zM554.667 409.6c0-23.564-19.103-42.667-42.667-42.667s-42.667 19.103-42.667 42.667c0 23.564 19.103 42.667 42.667 42.667s42.667-19.103 42.667-42.667zM682.667 409.6c0-23.564-19.103-42.667-42.667-42.667s-42.667 19.103-42.667 42.667c0 23.564 19.103 42.667 42.667 42.667s42.667-19.103 42.667-42.667zM597.333 708.267h85.333v-85.333h-85.333v85.333zM426.667 281.6c0-23.564-19.103-42.667-42.667-42.667s-42.667 19.103-42.667 42.667c0 23.564 19.103 42.667 42.667 42.667s42.667-19.103 42.667-42.667zM554.667 281.6c0-23.564-19.103-42.667-42.667-42.667s-42.667 19.103-42.667 42.667c0 23.564 19.103 42.667 42.667 42.667s42.667-19.103 42.667-42.667zM682.667 281.6c0-23.564-19.103-42.667-42.667-42.667s-42.667 19.103-42.667 42.667c0 23.564 19.103 42.667 42.667 42.667s42.667-19.103 42.667-42.667zM426.667 153.6c0-23.564-19.103-42.667-42.667-42.667s-42.667 19.103-42.667 42.667c0 23.564 19.103 42.667 42.667 42.667s42.667-19.103 42.667-42.667zM554.667 153.6c0-23.564-19.103-42.667-42.667-42.667s-42.667 19.103-42.667 42.667c0 23.564 19.103 42.667 42.667 42.667s42.667-19.103 42.667-42.667zM682.667 153.6c0-23.564-19.103-42.667-42.667-42.667s-42.667 19.103-42.667 42.667c0 23.564 19.103 42.667 42.667 42.667s42.667-19.103 42.667-42.667z" />
<glyph unicode="&#xe952;" glyph-name="coins" d="M341.333-17.067c-140.8 0-256 115.2-256 256 0 115.2 76.8 213.333 183.467 243.2-8.533 29.867-12.8 59.733-12.8 85.333-149.333-38.4-256-170.667-256-328.533 0-187.733 153.6-341.333 341.333-341.333 157.867 0 294.4 110.933 328.533 256-29.867 0-59.733 4.267-85.333 12.8-29.867-106.667-128-183.467-243.2-183.467zM725.333 793.6h-85.333v-42.667c-46.933-8.533-85.333-51.2-85.333-106.667 0-59.733 46.933-106.667 106.667-106.667h42.667c12.8 0 21.333-8.533 21.333-21.333s-8.533-21.333-21.333-21.333h-149.333v-85.333h85.333v-42.667h85.333v42.667c46.933 8.533 85.333 51.2 85.333 106.667 0 59.733-46.933 106.667-106.667 106.667h-42.667c-12.8 0-21.333 8.533-21.333 21.333s8.533 21.333 21.333 21.333h149.333v85.333h-85.333v42.667zM682.667 921.6c-187.733 0-341.333-153.6-341.333-341.333s153.6-341.333 341.333-341.333 341.333 153.6 341.333 341.333c0 187.733-153.6 341.333-341.333 341.333zM682.667 324.267c-140.8 0-256 115.2-256 256s115.2 256 256 256 256-115.2 256-256c0-140.8-115.2-256-256-256zM320 324.267h21.333c-17.067 25.6-34.133 51.2-46.933 81.067-46.933-12.8-81.067-51.2-81.067-102.4 0-59.733 46.933-106.667 106.667-106.667h42.667c12.8 0 21.333-8.533 21.333-21.333s-8.533-21.333-21.333-21.333h-149.333v-85.333h85.333v-42.667h85.333v42.667c46.933 8.533 85.333 51.2 85.333 106.667 0 12.8-4.267 29.867-8.533 42.667-29.867 17.067-55.467 38.4-81.067 64-4.267 0-12.8 0-17.067 0h-42.667c-12.8 0-21.333 8.533-21.333 21.333s8.533 21.333 21.333 21.333z" />
<glyph unicode="&#xe953;" glyph-name="money-bag-euro" d="M388.267 324.267h-46.933v-85.333h46.933c17.067-123.733 115.2-170.667 209.067-170.667v85.333c-51.2 0-106.667 17.067-123.733 85.333h123.733v85.333h-123.733c17.067 68.267 72.533 85.333 123.733 85.333v85.333c-93.867 0-192-46.933-209.067-170.667zM721.067 605.867l98.133 17.067-17.067 85.333-149.333-29.867 106.667 179.2c8.533 17.067 8.533 34.133-4.267 51.2-8.533 12.8-29.867 17.067-46.933 8.533l-196.267-76.8-196.267 76.8c-17.067 8.533-38.4 4.267-51.2-12.8-8.533-12.8-12.8-29.867-4.267-46.933l106.667-179.2-145.067 29.867-17.067-85.333 98.133-21.333c-106.667-64-174.933-183.467-174.933-320 0-213.333 170.667-384 384-384s384 170.667 384 384c0 136.533-68.267 256-174.933 324.267zM494.933 755.2c8.533-4.267 21.333-4.267 29.867 0l98.133 38.4-51.2-85.333h-123.733l-46.933 85.333 93.867-38.4zM512-17.067c-166.4 0-298.667 132.267-298.667 298.667s132.267 298.667 298.667 298.667c166.4 0 298.667-132.267 298.667-298.667s-132.267-298.667-298.667-298.667z" />
<glyph unicode="&#xe954;" glyph-name="piggy-bank" d="M1024 366.933c0 187.733-153.6 341.333-341.333 341.333h-213.333c-12.8 0-25.6 0-42.667-4.267l-145.067 123.733c-12.8 8.533-29.867 12.8-42.667 4.267-17.067-8.533-25.6-21.333-25.6-38.4v-200.533c-25.6-29.867-46.933-64-59.733-98.133h-110.933c-25.6 0-42.667-17.067-42.667-42.667v-213.333c0-25.6 17.067-42.667 42.667-42.667h132.267c38.4-68.267 98.133-115.2 166.4-145.067v-110.933h85.333v89.6c12.8 0 29.867-4.267 42.667-4.267h213.333c12.8 0 29.867 0 42.667 4.267v-89.6h85.333v110.933c123.733 51.2 213.333 174.933 213.333 315.733zM682.667 110.933h-213.333c-98.133 0-187.733 55.467-230.4 145.067-8.533 17.067-21.333 25.6-38.4 25.6h-115.2v128h98.133c17.067 0 34.133 12.8 42.667 29.867 8.533 38.4 29.867 76.8 59.733 106.667 8.533 8.533 12.8 17.067 12.8 29.867v128l89.6-76.8c8.533-8.533 21.333-12.8 34.133-8.533 17.067 4.267 34.133 4.267 46.933 4.267h213.333c140.8 0 256-115.2 256-256s-115.2-256-256-256zM469.333 537.6h256v-85.333h-256v85.333zM384 452.267c0-23.564-19.103-42.667-42.667-42.667s-42.667 19.103-42.667 42.667c0 23.564 19.103 42.667 42.667 42.667s42.667-19.103 42.667-42.667z" />
<glyph unicode="&#xe955;" glyph-name="business-graph-bar-1" d="M938.667-17.067v554.667c0 25.6-17.067 42.667-42.667 42.667h-170.667c-25.6 0-42.667-17.067-42.667-42.667v-554.667h-42.667v298.667c0 25.6-17.067 42.667-42.667 42.667h-170.667c-25.6 0-42.667-17.067-42.667-42.667v-298.667h-42.667v384c0 25.6-17.067 42.667-42.667 42.667h-170.667c-25.6 0-42.667-17.067-42.667-42.667v-384h-85.333v-85.333h1024v85.333h-85.333zM768 494.933h85.333v-512h-85.333v512zM469.333 238.933h85.333v-256h-85.333v256zM170.667 324.267h85.333v-341.333h-85.333v341.333z" />
<glyph unicode="&#xe956;" glyph-name="business-graph-pie-1" d="M810.667 366.933h-341.333v341.333c0 12.8-4.267 25.6-12.8 34.133-12.8 4.267-21.333 8.533-34.133 8.533-192-25.6-337.067-187.733-337.067-384 0-213.333 170.667-384 384-384 196.267 0 358.4 145.067 384 337.067 0 12.8-4.267 25.6-8.533 34.133-8.533 8.533-21.333 12.8-34.133 12.8zM469.333 68.267c-166.4 0-298.667 132.267-298.667 298.667 0 136.533 89.6 251.733 213.333 290.133v-332.8c0-25.6 17.067-42.667 42.667-42.667h332.8c-38.4-123.733-153.6-213.333-290.133-213.333zM554.667 836.267c-25.6 0-42.667-17.067-42.667-42.667v-341.333c0-25.6 17.067-42.667 42.667-42.667h341.333c25.6 0 42.667 17.067 42.667 42.667 0 213.333-170.667 384-384 384zM597.333 494.933v251.733c132.267-17.067 234.667-123.733 251.733-251.733h-251.733z" />
<glyph unicode="&#xe957;" glyph-name="interface-decreasing" d="M810.667 409.6v-153.6l-298.667 298.667-170.667-170.667-226.133 226.133-59.733-59.733 285.867-285.867 170.667 170.667 238.933-238.933h-153.6v-85.333h298.667v298.667z" />
<glyph unicode="&#xe958;" glyph-name="interface-increasing" d="M597.333 622.933v-85.333h153.6l-238.933-238.933-170.667 170.667-285.867-285.867 59.733-59.733 226.133 226.133 170.667-170.667 298.667 298.667v-153.6h85.333v298.667z" />
<glyph unicode="&#xe959;" glyph-name="leisure-chess" d="M640 750.933c0 72.533-55.467 128-128 128s-128-55.467-128-128 55.467-128 128-128c72.533 0 128 55.467 128 128zM512 708.267c-25.6 0-42.667 17.067-42.667 42.667s17.067 42.667 42.667 42.667 42.667-17.067 42.667-42.667-17.067-42.667-42.667-42.667zM810.667 81.067l-42.667 128c-4.267 17.067-21.333 29.867-42.667 29.867h-12.8l-29.867 98.133c-4.267 17.067-21.333 29.867-42.667 29.867v170.667h42.667v85.333h-341.333v-85.333h42.667v-170.667c-17.067 0-34.133-12.8-38.4-29.867l-34.133-98.133h-12.8c-17.067 0-34.133-12.8-38.4-29.867l-42.667-128c-4.267-12.8 0-25.6 4.267-38.4 8.533-8.533 21.333-17.067 34.133-17.067h512c12.8 0 25.6 8.533 34.133 17.067 8.533 12.8 12.8 25.6 8.533 38.4zM469.333 537.6h85.333v-170.667h-85.333v170.667zM413.867 281.6h196.267l12.8-42.667h-221.867l12.8 42.667zM315.733 110.933l12.8 42.667h366.933l12.8-42.667h-392.533z" />
<glyph unicode="&#xe95a;" glyph-name="lightbulb-4" d="M384-59.733h85.333v-42.667h85.333v42.667h85.333v85.333h-256zM512 708.267c-166.4 0-298.667-132.267-298.667-298.667 0-115.2 68.267-221.867 170.667-268.8v-29.867c0-25.6 17.067-42.667 42.667-42.667h170.667c25.6 0 42.667 17.067 42.667 42.667v29.867c102.4 46.933 170.667 153.6 170.667 268.8 0 166.4-132.267 298.667-298.667 298.667zM584.533 209.067c-17.067-4.267-29.867-21.333-29.867-38.4v-17.067h-85.333v12.8c0 17.067-12.8 34.133-29.867 38.4-85.333 34.133-140.8 115.2-140.8 204.8 0 119.467 93.867 213.333 213.333 213.333s213.333-93.867 213.333-213.333c0-89.6-55.467-170.667-140.8-200.533zM469.333 921.6h85.333v-170.667h-85.333v170.667zM0 452.267h170.667v-85.333h-170.667v85.333zM853.333 452.267h170.667v-85.333h-170.667v85.333zM798.663 636.139l-60.365 60.322 126.676 126.766 60.365-60.322-126.676-126.766zM225.25 636.061l-126.694 126.73 60.348 60.331 126.694-126.73-60.348-60.331z" />
<glyph unicode="&#xe95b;" glyph-name="programming-jigsaw" d="M968.533 439.467l-123.733 123.733c-17.067 17.067-42.667 17.067-59.733 0s-38.4-25.6-59.733-25.6c-46.933 0-85.333 38.4-85.333 85.333 0 21.333 8.533 42.667 25.6 59.733s17.067 42.667 0 59.733l-123.733 123.733c-17.067 17.067-42.667 17.067-59.733 0l-93.867-93.867c-29.867 38.4-81.067 64-132.267 64-93.867 0-170.667-76.8-170.667-170.667 0-51.2 25.6-102.4 64-132.267l-93.867-93.867c-8.533-8.533-12.8-17.067-12.8-29.867s4.267-21.333 12.8-29.867l123.733-123.733c17.067-17.067 42.667-17.067 59.733 0s38.4 25.6 59.733 25.6c46.933 0 85.333-38.4 85.333-85.333 0-21.333-8.533-42.667-25.6-59.733-8.533-8.533-12.8-17.067-12.8-29.867s4.267-21.333 12.8-29.867l123.733-123.733c8.533-8.533 21.333-12.8 29.867-12.8s21.333 4.267 29.867 12.8l93.867 93.867c29.867-38.4 81.067-64 132.267-64 93.867 0 170.667 76.8 170.667 170.667 0 51.2-25.6 102.4-64 132.267l93.867 93.867c17.067 17.067 17.067 42.667 0 59.733zM776.533 307.2c-8.533-8.533-12.8-25.6-12.8-42.667 4.267-12.8 12.8-25.6 29.867-29.867 38.4-12.8 59.733-42.667 59.733-81.067 0-46.933-38.4-85.333-85.333-85.333-38.4 0-68.267 25.6-81.067 59.733-4.267 12.8-17.067 25.6-29.867 29.867s-29.867 0-42.667-12.8l-102.4-102.4-68.267 68.267c17.067 25.6 25.6 55.467 25.6 85.333 0 93.867-76.8 170.667-170.667 170.667-29.867 0-59.733-8.533-85.333-25.6l-68.267 68.267 102.4 102.4c8.533 8.533 12.8 25.6 12.8 42.667-4.267 12.8-12.8 25.6-29.867 29.867-34.133 12.8-59.733 42.667-59.733 81.067 0 46.933 38.4 85.333 85.333 85.333 38.4 0 68.267-25.6 81.067-59.733 4.267-17.067 17.067-25.6 29.867-29.867s29.867 0 42.667 12.8l102.4 102.4 68.267-68.267c-17.067-25.6-25.6-55.467-25.6-85.333 0-93.867 76.8-170.667 170.667-170.667 29.867 0 59.733 8.533 85.333 25.6l68.267-68.267-102.4-102.4z" />
<glyph unicode="&#xe95c;" glyph-name="strategy" d="M597.333 836.267v-85.333h196.267l-652.8-652.8 59.733-59.733 652.8 652.8v-196.267h85.333v341.333zM157.867 507.733l98.133 98.133 98.133-98.133 59.733 59.733-98.133 98.133 98.133 98.133-59.733 59.733-98.133-98.133-98.133 98.133-59.733-59.733 98.133-98.133-98.133-98.133zM746.667 366.933c-106.667 0-192-85.333-192-192s85.333-192 192-192 192 85.333 192 192-85.333 192-192 192zM746.667 68.267c-59.733 0-106.667 46.933-106.667 106.667s46.933 106.667 106.667 106.667 106.667-46.933 106.667-106.667-46.933-106.667-106.667-106.667z" />
<glyph unicode="&#xe95d;" glyph-name="business-whiteboard-graph" d="M853.333 836.267h-682.667c-46.933 0-85.333-38.4-85.333-85.333v-426.667c0-46.933 38.4-85.333 85.333-85.333h238.933l-256-256h119.467l196.267 196.267v-196.267h85.333v196.267l196.267-196.267h119.467l-256 256h238.933c46.933 0 85.333 38.4 85.333 85.333v426.667c0 46.933-38.4 85.333-85.333 85.333zM853.333 750.933v-25.6l-213.333-213.333-55.467 55.467c-17.067 17.067-42.667 17.067-59.733 0l-55.467-55.467-98.133 98.133c-17.067 17.067-42.667 17.067-59.733 0l-72.533-72.533h-68.267v213.333h682.667zM170.667 324.267v128h85.333c12.8 0 21.333 4.267 29.867 12.8l55.467 55.467 98.133-98.133c17.067-17.067 42.667-17.067 59.733 0l55.467 55.467 55.467-55.467c8.533-8.533 21.333-12.8 29.867-12.8s21.333 4.267 29.867 12.8l183.467 183.467v-281.6h-682.667z" />
<glyph unicode="&#xe95e;" glyph-name="business-whiteboard" d="M853.333 836.267h-682.667c-46.933 0-85.333-38.4-85.333-85.333v-426.667c0-46.933 38.4-85.333 85.333-85.333h238.933l-256-256h119.467l196.267 196.267v-196.267h85.333v196.267l196.267-196.267h119.467l-256 256h238.933c46.933 0 85.333 38.4 85.333 85.333v426.667c0 46.933-38.4 85.333-85.333 85.333zM853.333 750.933v-85.333h-682.667v85.333h682.667zM170.667 324.267v256h682.667v-256h-682.667z" />
<glyph unicode="&#xe95f;" glyph-name="projector-screen" d="M938.667 622.933v128c0 25.6-17.067 42.667-42.667 42.667h-768c-25.6 0-42.667-17.067-42.667-42.667v-128c0-25.6 17.067-42.667 42.667-42.667v-426.667h-42.667v-85.333h384v-85.333h85.333v85.333h384v85.333h-42.667v426.667c25.6 0 42.667 17.067 42.667 42.667zM170.667 708.267h682.667v-42.667h-682.667v42.667zM810.667 153.6h-597.333v426.667h597.333v-426.667z" />
<glyph unicode="&#xe960;" glyph-name="printer" d="M938.667 452.267c0 72.533-55.467 128-128 128h-85.333v-85.333h-426.667v85.333h-85.333c-72.533 0-128-55.467-128-128v-384h128v-170.667h597.333v170.667h128v384zM725.333-17.067h-426.667v170.667h426.667v-170.667zM853.333 153.6h-42.667v85.333h-597.333v-85.333h-42.667v298.667c0 25.6 17.067 42.667 42.667 42.667v-85.333h597.333v85.333c25.6 0 42.667-17.067 42.667-42.667v-298.667zM298.667 793.6h426.667v-170.667h85.333v256h-597.333v-256h85.333zM768 324.267c0-23.564-19.103-42.667-42.667-42.667s-42.667 19.103-42.667 42.667c0 23.564 19.103 42.667 42.667 42.667s42.667-19.103 42.667-42.667z" />
<glyph unicode="&#xe961;" glyph-name="scanner" d="M204.8 281.6l588.8 477.867-55.467 64-669.867-541.867h-25.6v-170.667c0-46.933 38.4-85.333 85.333-85.333h768c46.933 0 85.333 38.4 85.333 85.333v170.667h-776.533zM128 110.933v85.333h768v-85.333h-768zM512 409.6h426.667v-85.333h-426.667v85.333z" />
<glyph unicode="&#xe962;" glyph-name="computer-screen-1" d="M938.667 793.6h-853.333c-46.933 0-85.333-38.4-85.333-85.333v-554.667c0-46.933 38.4-85.333 85.333-85.333h384v-85.333h-170.667v-85.333h426.667v85.333h-170.667v85.333h384c46.933 0 85.333 38.4 85.333 85.333v554.667c0 46.933-38.4 85.333-85.333 85.333zM938.667 708.267v-426.667h-853.333v426.667h853.333zM85.333 153.6v42.667h853.333v-42.667h-853.333z" />
<glyph unicode="&#xe963;" glyph-name="keyboard" d="M341.333 196.267h341.333v-85.333h-341.333v85.333zM938.667 580.267h-384v42.667c0 25.6 17.067 42.667 42.667 42.667h42.667c72.533 0 128 55.467 128 128v42.667h-85.333v-42.667c0-25.6-17.067-42.667-42.667-42.667h-42.667c-72.533 0-128-55.467-128-128v-42.667h-384c-46.933 0-85.333-38.4-85.333-85.333v-426.667c0-46.933 38.4-85.333 85.333-85.333h853.333c46.933 0 85.333 38.4 85.333 85.333v426.667c0 46.933-38.4 85.333-85.333 85.333zM85.333 68.267v426.667h853.333v-426.667h-853.333zM298.667 409.6c0-23.564-19.103-42.667-42.667-42.667s-42.667 19.103-42.667 42.667c0 23.564 19.103 42.667 42.667 42.667s42.667-19.103 42.667-42.667zM426.667 409.6c0-23.564-19.103-42.667-42.667-42.667s-42.667 19.103-42.667 42.667c0 23.564 19.103 42.667 42.667 42.667s42.667-19.103 42.667-42.667zM554.667 409.6c0-23.564-19.103-42.667-42.667-42.667s-42.667 19.103-42.667 42.667c0 23.564 19.103 42.667 42.667 42.667s42.667-19.103 42.667-42.667zM682.667 409.6c0-23.564-19.103-42.667-42.667-42.667s-42.667 19.103-42.667 42.667c0 23.564 19.103 42.667 42.667 42.667s42.667-19.103 42.667-42.667zM810.667 409.6c0-23.564-19.103-42.667-42.667-42.667s-42.667 19.103-42.667 42.667c0 23.564 19.103 42.667 42.667 42.667s42.667-19.103 42.667-42.667zM298.667 281.6c0-23.564-19.103-42.667-42.667-42.667s-42.667 19.103-42.667 42.667c0 23.564 19.103 42.667 42.667 42.667s42.667-19.103 42.667-42.667zM426.667 281.6c0-23.564-19.103-42.667-42.667-42.667s-42.667 19.103-42.667 42.667c0 23.564 19.103 42.667 42.667 42.667s42.667-19.103 42.667-42.667zM554.667 281.6c0-23.564-19.103-42.667-42.667-42.667s-42.667 19.103-42.667 42.667c0 23.564 19.103 42.667 42.667 42.667s42.667-19.103 42.667-42.667zM682.667 281.6c0-23.564-19.103-42.667-42.667-42.667s-42.667 19.103-42.667 42.667c0 23.564 19.103 42.667 42.667 42.667s42.667-19.103 42.667-42.667zM810.667 281.6c0-23.564-19.103-42.667-42.667-42.667s-42.667 19.103-42.667 42.667c0 23.564 19.103 42.667 42.667 42.667s42.667-19.103 42.667-42.667z" />
<glyph unicode="&#xe964;" glyph-name="laptop-2" d="M1006.933 81.067l-68.267 209.067v503.467c0 25.6-17.067 42.667-42.667 42.667h-768c-25.6 0-42.667-17.067-42.667-42.667v-503.467l-68.267-209.067c-8.533-25.6-4.267-46.933 8.533-68.267 12.8-17.067 34.133-29.867 59.733-29.867h853.333c25.6 0 46.933 12.8 59.733 29.867s17.067 42.667 8.533 68.267zM853.333 750.933v-426.667h-682.667v426.667h682.667zM102.4 68.267l55.467 170.667h708.267l55.467-170.667h-819.2zM426.667 196.267h170.667v-85.333h-170.667v85.333z" />
<glyph unicode="&#xe965;" glyph-name="mouse" d="M597.333 665.6h42.667c72.533 0 128 55.467 128 128v42.667h-85.333v-42.667c0-25.6-17.067-42.667-42.667-42.667h-42.667c-72.533 0-128-55.467-128-128v-42.667h-128c-46.933 0-85.333-38.4-85.333-85.333v-298.667c0-140.8 115.2-256 256-256s256 115.2 256 256v298.667c0 46.933-38.4 85.333-85.333 85.333h-128v42.667c0 25.6 17.067 42.667 42.667 42.667zM469.333 494.933v-128h-128v128h128zM512 25.6c-93.867 0-170.667 76.8-170.667 170.667v85.333h341.333v-85.333c0-93.867-76.8-170.667-170.667-170.667zM682.667 494.933v-128h-128v128h128z" />
<glyph unicode="&#xe966;" glyph-name="plug-2" d="M576 345.6c0-35.346-28.654-64-64-64s-64 28.654-64 64c0 35.346 28.654 64 64 64s64-28.654 64-64zM768 580.267h-42.667v213.333h-85.333v-213.333h-256v213.333h-85.333v-213.333h-42.667c-46.933 0-85.333-38.4-85.333-85.333v-42.667c0-174.933 132.267-315.733 298.667-337.067v-132.267h85.333v132.267c166.4 21.333 298.667 166.4 298.667 337.067v42.667c0 46.933-38.4 85.333-85.333 85.333zM768 452.267c0-140.8-115.2-256-256-256s-256 115.2-256 256v42.667h512v-42.667zM469.333 793.6h85.333v-170.667h-85.333v170.667z" />
<glyph unicode="&#xe967;" glyph-name="usb-sign" d="M853.333 580.267c0 46.933-38.4 85.333-85.333 85.333s-85.333-38.4-85.333-85.333c0-29.867 17.067-59.733 42.667-72.533v-12.8c0-72.533-55.467-128-128-128h-42.667v256h72.533l-115.2 170.667-115.2-170.667h72.533v-426.667h-42.667c-72.533 0-128 55.467-128 128v55.467c25.6 12.8 42.667 42.667 42.667 72.533 0 46.933-38.4 85.333-85.333 85.333s-85.333-38.4-85.333-85.333c0-29.867 17.067-59.733 42.667-72.533v-55.467c0-119.467 93.867-213.333 213.333-213.333h42.667v-128h85.333v298.667h42.667c119.467 0 213.333 93.867 213.333 213.333v12.8c25.6 12.8 42.667 42.667 42.667 72.533z" />
<glyph unicode="&#xe968;" glyph-name="camera-2" d="M618.667 537.6c-81.067 0-149.333-68.267-149.333-149.333s68.267-149.333 149.333-149.333 149.333 68.267 149.333 149.333c0 81.067-68.267 149.333-149.333 149.333zM618.667 324.267c-34.133 0-64 29.867-64 64s29.867 64 64 64 64-29.867 64-64c0-34.133-29.867-64-64-64zM853.333 665.6h-42.667v85.333h-170.667v-85.333h-469.333c-46.933 0-85.333-38.4-85.333-85.333v-384c0-46.933 38.4-85.333 85.333-85.333h682.667c46.933 0 85.333 38.4 85.333 85.333v384c0 46.933-38.4 85.333-85.333 85.333zM170.667 196.267v384h682.667v-384h-682.667zM256 537.6h170.667v-85.333h-170.667v85.333z" />
<glyph unicode="&#xe969;" glyph-name="crop" d="M384 281.6v213.333h-85.333v-298.667h597.333v85.333zM640 324.267h85.333v298.667h-597.333v-85.333h512zM298.667 836.267h85.333v-170.667h-85.333v170.667zM640 153.6h85.333v-170.667h-85.333v170.667z" />
<glyph unicode="&#xe96a;" glyph-name="focus-2" d="M128 708.267h128v85.333h-128c-46.933 0-85.333-38.4-85.333-85.333v-128h85.333v128zM896 793.6h-128v-85.333h128v-128h85.333v128c0 46.933-38.4 85.333-85.333 85.333zM256 25.6v85.333h-128v128h-85.333v-128c0-46.933 38.4-85.333 85.333-85.333h128zM896 110.933h-128v-85.333h128c46.933 0 85.333 38.4 85.333 85.333v128h-85.333v-128zM213.333 196.267h597.333v426.667h-597.333v-426.667zM298.667 537.6h426.667v-256h-426.667v256z" />
<glyph unicode="&#xe96b;" glyph-name="paint-brush-1" d="M938.667 704c0 34.133-12.8 68.267-38.4 89.6-46.933 46.933-132.267 46.933-179.2 0l-435.2-435.2c-38.4-4.267-76.8-17.067-106.667-46.933-59.733-59.733-59.733-110.933-55.467-153.6 0-34.133 4.267-59.733-38.4-102.4l-59.733-59.733c72.533-8.533 89.6-12.8 132.267-12.8v0c64 0 183.467 12.8 260.267 89.6 29.867 29.867 46.933 68.267 46.933 110.933l435.2 430.933c25.6 25.6 38.4 55.467 38.4 89.6zM358.4 132.267c-42.667-42.667-115.2-59.733-166.4-64 17.067 38.4 12.8 68.267 12.8 93.867 0 76.8 46.933 115.2 93.867 115.2 21.333 0 42.667-8.533 59.733-25.6 34.133-34.133 34.133-85.333 0-119.467zM840.533 674.133l-396.8-396.8c-8.533 12.8-17.067 25.6-25.6 34.133-8.533 12.8-21.333 21.333-34.133 25.6l396.8 396.8c17.067 17.067 42.667 17.067 59.733 0 8.533-8.533 12.8-17.067 12.8-29.867 0-8.533-4.267-21.333-12.8-29.867z" />
<glyph unicode="&#xe96c;" glyph-name="paint-bucket" d="M264.533 853.333l-234.667-405.333c-17.067-29.867-21.333-64-12.8-98.133s29.867-59.733 59.733-76.8l221.867-128c21.333-12.8 42.667-17.067 64-17.067 46.933 0 89.6 25.6 110.933 64l140.8 247.467 196.267 98.133-546.133 315.733zM554.667 503.467l-157.867-268.8c-12.8-21.333-38.4-25.6-59.733-17.067l-221.867 128c-8.533 4.267-17.067 12.8-21.333 25.6s0 21.333 4.267 34.133l192 332.8 337.067-196.267-72.533-38.4zM832 448c-34.133-51.2-149.333-234.667-149.333-311.467 0-85.333 68.267-149.333 149.333-149.333s149.333 68.267 149.333 149.333c0 76.8-119.467 256-149.333 311.467zM832 68.267c-38.4 0-64 29.867-64 64 0 21.333 29.867 85.333 64 149.333 34.133-64 64-128 64-149.333 0-34.133-29.867-64-64-64z" />
<glyph unicode="&#xe96d;" glyph-name="paint-palette" d="M512 836.267c-234.667 0-426.667-192-426.667-426.667s192-426.667 426.667-426.667c21.333 0 38.4 0 59.733 4.267 46.933 4.267 81.067 38.4 98.133 81.067 12.8 42.667 4.267 89.6-29.867 123.733l-42.667 42.667c-8.533 8.533-12.8 25.6-8.533 38.4 0 4.267 4.267 12.8 29.867 12.8h200.533c64 0 119.467 59.733 119.467 128 0 230.4-192 422.4-426.667 422.4zM819.2 366.933h-200.533c-51.2 0-93.867-25.6-110.933-64-17.067-46.933-8.533-93.867 25.6-132.267 21.333-21.333 59.733-46.933 51.2-76.8-8.533-25.6-42.667-25.6-72.533-25.6-187.733 0-341.333 153.6-341.333 341.333s153.6 341.333 341.333 341.333 341.333-153.6 341.333-341.333c0-21.333-17.067-42.667-34.133-42.667zM469.333 708.267c-46.933 0-85.333-38.4-85.333-85.333s38.4-85.333 85.333-85.333 85.333 38.4 85.333 85.333c0 46.933-38.4 85.333-85.333 85.333zM298.667 494.933c-46.933 0-85.333-38.4-85.333-85.333s38.4-85.333 85.333-85.333 85.333 38.4 85.333 85.333c0 46.933-38.4 85.333-85.333 85.333zM682.667 580.267c-46.933 0-85.333-38.4-85.333-85.333s38.4-85.333 85.333-85.333 85.333 38.4 85.333 85.333c0 46.933-38.4 85.333-85.333 85.333z" />
<glyph unicode="&#xe96e;" glyph-name="photo-landscape" d="M853.333 708.267h-682.667c-46.933 0-85.333-38.4-85.333-85.333v-426.667c0-46.933 38.4-85.333 85.333-85.333h682.667c46.933 0 85.333 38.4 85.333 85.333v426.667c0 46.933-38.4 85.333-85.333 85.333zM170.667 196.267v426.667h682.667v-426.667h-682.667zM512 366.933c-76.8 0-128-51.2-128-128h256c0 76.8-51.2 128-128 128zM597.333 494.933c0-47.128-38.205-85.333-85.333-85.333s-85.333 38.205-85.333 85.333c0 47.128 38.205 85.333 85.333 85.333s85.333-38.205 85.333-85.333z" />
<glyph unicode="&#xe96f;" glyph-name="photo-portrait" d="M725.333 836.267h-426.667c-46.933 0-85.333-38.4-85.333-85.333v-682.667c0-46.933 38.4-85.333 85.333-85.333h426.667c46.933 0 85.333 38.4 85.333 85.333v682.667c0 46.933-38.4 85.333-85.333 85.333zM298.667 68.267v682.667h426.667v-682.667h-426.667zM512 366.933c-76.8 0-128-51.2-128-128h256c0 76.8-51.2 128-128 128zM597.333 494.933c0-47.128-38.205-85.333-85.333-85.333s-85.333 38.205-85.333 85.333c0 47.128 38.205 85.333 85.333 85.333s85.333-38.205 85.333-85.333z" />
<glyph unicode="&#xe970;" glyph-name="picture-layer-2" d="M896 537.6h-512c-46.933 0-85.333-38.4-85.333-85.333v-341.333c0-46.933 38.4-85.333 85.333-85.333h512c46.933 0 85.333 38.4 85.333 85.333v341.333c0 46.933-38.4 85.333-85.333 85.333zM896 110.933h-512v341.333h512v-341.333zM128 665.6h512v-42.667h85.333v42.667c0 46.933-38.4 85.333-85.333 85.333h-512c-46.933 0-85.333-38.4-85.333-85.333v-341.333c0-46.933 38.4-85.333 85.333-85.333h85.333v85.333h-85.333v341.333zM708.267 384l-110.933-183.467-46.933 81.067-81.067-128h384z" />
<glyph unicode="&#xe971;" glyph-name="film-roll" d="M610.133 110.933c72.533 64 115.2 153.6 115.2 256 0 187.733-153.6 341.333-341.333 341.333s-341.333-153.6-341.333-341.333 153.6-341.333 341.333-341.333h554.667v85.333h-328.533zM593.067 217.6l-64 64c17.067 25.6 25.6 55.467 25.6 85.333s-8.533 59.733-25.6 85.333l64 64c29.867-42.667 46.933-93.867 46.933-149.333s-17.067-106.667-46.933-149.333zM298.667 366.933c0 46.933 38.4 85.333 85.333 85.333s85.333-38.4 85.333-85.333c0-46.933-38.4-85.333-85.333-85.333s-85.333 38.4-85.333 85.333zM533.333 576l-64-64c-25.6 17.067-55.467 25.6-85.333 25.6s-59.733-8.533-85.333-25.6l-64 64c42.667 29.867 93.867 46.933 149.333 46.933s106.667-17.067 149.333-46.933zM174.933 516.267l64-64c-17.067-25.6-25.6-55.467-25.6-85.333s8.533-59.733 25.6-85.333l-64-64c-29.867 42.667-46.933 93.867-46.933 149.333s17.067 106.667 46.933 149.333zM234.667 157.867l64 64c25.6-17.067 55.467-25.6 85.333-25.6s59.733 8.533 85.333 25.6l64-64c-42.667-29.867-93.867-46.933-149.333-46.933s-106.667 17.067-149.333 46.933z" />
<glyph unicode="&#xe972;" glyph-name="video-call-1" d="M874.667 576c-12.8 8.533-29.867 8.533-42.667 0l-106.667-55.467v59.733c0 46.933-38.4 85.333-85.333 85.333h-384c-46.933 0-85.333-38.4-85.333-85.333v-341.333c0-46.933 38.4-85.333 85.333-85.333h384c46.933 0 85.333 38.4 85.333 85.333v59.733l110.933-55.467c4.267-4.267 8.533-4.267 17.067-4.267s17.067 4.267 21.333 4.267c12.8 8.533 21.333 21.333 21.333 38.4v256c0 12.8-8.533 29.867-21.333 38.4zM640 238.933h-384v341.333h384v-341.333zM810.667 349.867l-85.333 42.667v34.133l85.333 42.667v-119.467z" />
<glyph unicode="&#xe973;" glyph-name="video-call-conference" d="M597.333 708.267c0-47.128-38.205-85.333-85.333-85.333s-85.333 38.205-85.333 85.333c0 47.128 38.205 85.333 85.333 85.333s85.333-38.205 85.333-85.333zM930.133 136.533c29.867 21.333 51.2 59.733 51.2 102.4 0 72.533-55.467 128-128 128s-128-55.467-128-128c0-42.667 21.333-81.067 51.2-102.4-55.467-29.867-93.867-85.333-93.867-153.6 0 68.267-38.4 123.733-93.867 153.6 29.867 21.333 51.2 59.733 51.2 102.4 0 72.533-55.467 128-128 128s-128-55.467-128-128c0-42.667 21.333-81.067 51.2-102.4-55.467-29.867-93.867-85.333-93.867-153.6 0 68.267-38.4 123.733-93.867 153.6 29.867 21.333 51.2 59.733 51.2 102.4 0 72.533-55.467 128-128 128s-128-55.467-128-128c0-42.667 21.333-81.067 51.2-102.4-55.467-29.867-93.867-85.333-93.867-153.6v-42.667c0-25.6 17.067-42.667 42.667-42.667h256c25.6 0 42.667 17.067 42.667 42.667 0-25.6 17.067-42.667 42.667-42.667h256c25.6 0 42.667 17.067 42.667 42.667 0-25.6 17.067-42.667 42.667-42.667h256c25.6 0 42.667 17.067 42.667 42.667v42.667c0 68.267-38.4 123.733-93.867 153.6zM170.667 281.6c25.6 0 42.667-17.067 42.667-42.667s-17.067-42.667-42.667-42.667-42.667 17.067-42.667 42.667c0 25.6 17.067 42.667 42.667 42.667zM85.333-17.067c0 46.933 38.4 85.333 85.333 85.333s85.333-38.4 85.333-85.333h-170.667zM512 281.6c25.6 0 42.667-17.067 42.667-42.667s-17.067-42.667-42.667-42.667-42.667 17.067-42.667 42.667c0 25.6 17.067 42.667 42.667 42.667zM426.667-17.067c0 46.933 38.4 85.333 85.333 85.333s85.333-38.4 85.333-85.333h-170.667zM853.333 281.6c25.6 0 42.667-17.067 42.667-42.667s-17.067-42.667-42.667-42.667-42.667 17.067-42.667 42.667c0 25.6 17.067 42.667 42.667 42.667zM768-17.067c0 46.933 38.4 85.333 85.333 85.333s85.333-38.4 85.333-85.333h-170.667zM981.333 921.6h-938.667c-25.6 0-42.667-17.067-42.667-42.667v-426.667c0-25.6 17.067-42.667 42.667-42.667h938.667c25.6 0 42.667 17.067 42.667 42.667v426.667c0 25.6-17.067 42.667-42.667 42.667zM938.667 494.933h-302.933c-17.067 51.2-59.733 85.333-123.733 85.333s-106.667-34.133-123.733-85.333h-302.933v341.333h853.333v-341.333z" />
<glyph unicode="&#xe974;" glyph-name="video-camera-3" d="M874.667 358.4c-12.8 8.533-29.867 8.533-42.667 0l-106.667-51.2v17.067c0 46.933-38.4 85.333-85.333 85.333h-341.333c-46.933 0-85.333-38.4-85.333-85.333v-256c0-46.933 38.4-85.333 85.333-85.333h341.333c46.933 0 85.333 38.4 85.333 85.333v17.067l110.933-55.467c4.267-4.267 8.533-4.267 17.067-4.267s17.067 0 21.333 4.267c12.8 8.533 21.333 21.333 21.333 38.4v256c0 12.8-8.533 29.867-21.333 34.133zM298.667 68.267v256h341.333v-256h-341.333zM810.667 136.533l-85.333 42.667v34.133l85.333 42.667v-119.467zM426.667 622.933c0 93.867-76.8 170.667-170.667 170.667s-170.667-76.8-170.667-170.667c0-93.867 76.8-170.667 170.667-170.667s170.667 76.8 170.667 170.667zM170.667 622.933c0 46.933 38.4 85.333 85.333 85.333s85.333-38.4 85.333-85.333c0-46.933-38.4-85.333-85.333-85.333s-85.333 38.4-85.333 85.333zM640 452.267c93.867 0 170.667 76.8 170.667 170.667s-76.8 170.667-170.667 170.667-170.667-76.8-170.667-170.667c0-93.867 76.8-170.667 170.667-170.667zM640 708.267c46.933 0 85.333-38.4 85.333-85.333s-38.4-85.333-85.333-85.333-85.333 38.4-85.333 85.333c0 46.933 38.4 85.333 85.333 85.333z" />
<glyph unicode="&#xe975;" glyph-name="magic-wand-1" d="M930.133 401.067l-136.533 136.533 85.333 174.933c8.533 17.067 4.267 34.133-8.533 46.933s-34.133 17.067-46.933 8.533l-174.933-85.333-136.533 136.533c-12.8 12.8-34.133 17.067-51.2 8.533s-25.6-25.6-21.333-46.933l29.867-183.467-187.733-89.6c-17.067-8.533-25.6-25.6-25.6-42.667 4.267-17.067 17.067-34.133 34.133-34.133l157.867-25.6-392.533-392.533 59.733-59.733 392.533 392.533 25.6-157.867c4.267-17.067 17.067-34.133 34.133-34.133 4.267 0 4.267 0 8.533 0 17.067 0 29.867 8.533 38.4 25.6l93.867 183.467 183.467-29.867c17.067-4.267 38.4 4.267 42.667 21.333 12.8 12.8 8.533 34.133-4.267 46.933zM691.2 448c-17.067 4.267-38.4-4.267-46.933-21.333l-46.933-98.133-17.067 106.667c-4.267 17.067-17.067 34.133-34.133 34.133l-106.667 17.067 93.867 51.2c17.067 8.533 25.6 25.6 21.333 46.933l-12.8 85.333 64-64c12.8-12.8 34.133-17.067 46.933-8.533l93.867 46.933-46.933-93.867c-8.533-17.067-4.267-34.133 8.533-46.933l64-64-81.067 8.533z" />
<glyph unicode="&#xe976;" glyph-name="paper-pencil" d="M853.333 836.267c-72.533 0-128-55.467-128-128v-482.133l128-192 128 192v482.133c0 72.533-55.467 128-128 128zM896 251.733l-42.667-64-42.667 64v328.533h85.333v-328.533zM810.667 665.6v42.667c0 25.6 17.067 42.667 42.667 42.667s42.667-17.067 42.667-42.667v-42.667h-85.333zM554.667 793.6h-426.667c-46.933 0-85.333-38.4-85.333-85.333v-597.333c0-46.933 38.4-85.333 85.333-85.333h426.667c46.933 0 85.333 38.4 85.333 85.333v597.333c0 46.933-38.4 85.333-85.333 85.333zM128 110.933v597.333h426.667v-597.333h-426.667zM213.333 622.933h256v-85.333h-256v85.333zM213.333 452.267h256v-85.333h-256v85.333zM213.333 281.6h170.667v-85.333h-170.667v85.333z" />
<glyph unicode="&#xe977;" glyph-name="paperclip" d="M469.333-59.733c-123.733 0-213.333 98.133-213.333 234.667v362.667c0 170.667 119.467 298.667 277.333 298.667s277.333-128 277.333-298.667v-298.667h-85.333v298.667c0 123.733-81.067 213.333-192 213.333s-192-89.6-192-213.333v-362.667c0-72.533 38.4-149.333 128-149.333s128 76.8 128 149.333v320c0 25.6-4.267 85.333-64 85.333s-64-59.733-64-85.333v-298.667h-85.333v298.667c0 102.4 59.733 170.667 149.333 170.667s149.333-68.267 149.333-170.667v-320c0-136.533-89.6-234.667-213.333-234.667z" />
<glyph unicode="&#xe978;" glyph-name="pencil-1" d="M887.467 785.067c-29.867 34.133-76.8 51.2-119.467 51.2s-89.6-17.067-119.467-51.2l-490.667-486.4c0 0 0 0 0 0-4.267-4.267-8.533-12.8-12.8-21.333l-59.733-243.2c-4.267-12.8 0-29.867 12.8-38.4v0 0c8.533-12.8 25.6-17.067 38.4-12.8l243.2 59.733c8.533 0 17.067 8.533 21.333 12.8 0 0 0 0 0 0l486.4 486.4c34.133 34.133 51.2 76.8 51.2 123.733 0 42.667-17.067 89.6-51.2 119.467v0zM614.4 635.733l123.733-123.733-366.933-366.933-123.733 123.733 366.933 366.933zM187.733 85.333l25.6 98.133 76.8-72.533-102.4-25.6zM827.733 725.333c34.133-34.133 34.133-89.6 0-123.733l-29.867-29.867-123.733 123.733 29.867 29.867c34.133 34.133 89.6 34.133 123.733 0z" />
<glyph unicode="&#xe979;" glyph-name="ruler-1" d="M955.733 674.133l-179.2 179.2c-34.133 34.133-89.6 34.133-119.467 0l-546.133-541.867c-17.067-17.067-25.6-38.4-25.6-59.733s8.533-42.667 25.6-59.733l179.2-179.2c17.067-21.333 38.4-29.867 59.733-29.867s42.667 8.533 59.733 25.6l546.133 541.867c17.067 17.067 25.6 38.4 25.6 64 0 21.333-8.533 42.667-25.6 59.733zM349.867 68.267v0l-179.2 183.467 89.6 89.6 89.6-89.6 59.733 59.733-89.6 89.6 89.6 89.6 89.6-89.6 59.733 59.733-89.6 89.6 89.6 89.6 89.6-89.6 59.733 59.733-89.6 89.6 93.867 93.867 183.467-179.2-546.133-546.133z" />
<glyph unicode="&#xe97a;" glyph-name="scissors" d="M810.667 281.6c-68.267 0-123.733-38.4-153.6-93.867l-89.6 136.533c72.533 110.933 157.867 260.267 277.333 443.733l-72.533 46.933-260.267-401.067-264.533 401.067-68.267-42.667c115.2-187.733 204.8-332.8 277.333-448l-89.6-136.533c-29.867 55.467-85.333 93.867-153.6 93.867-93.867 0-170.667-76.8-170.667-170.667s76.8-170.667 170.667-170.667c93.867 0 132.267 34.133 298.667 294.4 166.4-260.267 204.8-294.4 298.667-294.4s170.667 76.8 170.667 170.667-76.8 170.667-170.667 170.667zM273.067 51.2c-17.067-17.067-38.4-25.6-59.733-25.6-46.933 0-85.333 38.4-85.333 85.333s38.4 85.333 85.333 85.333 85.333-38.4 85.333-85.333c0-21.333-8.533-42.667-25.6-59.733zM810.667 25.6c-21.333 0-42.667 8.533-59.733 25.6s-25.6 38.4-25.6 59.733c0 46.933 38.4 85.333 85.333 85.333s85.333-38.4 85.333-85.333c0-46.933-38.4-85.333-85.333-85.333z" />
<glyph unicode="&#xe97b;" glyph-name="bookmark-4" d="M725.333 836.267h-426.667c-93.867 0-170.667-76.8-170.667-170.667v-640c0-17.067 8.533-34.133 25.6-38.4 17.067-8.533 34.133-4.267 46.933 8.533l183.467 183.467 183.467-183.467c8.533-8.533 17.067-12.8 29.867-12.8 4.267 0 12.8 0 17.067 4.267 17.067 8.533 25.6 21.333 25.6 38.4v426.667h213.333c25.6 0 42.667 17.067 42.667 42.667v170.667c0 93.867-76.8 170.667-170.667 170.667zM554.667 665.6v-537.6l-140.8 140.8c-8.533 8.533-17.067 12.8-29.867 12.8s-21.333-4.267-29.867-12.8l-140.8-140.8v537.6c0 46.933 38.4 85.333 85.333 85.333h277.333c-12.8-25.6-21.333-55.467-21.333-85.333zM810.667 537.6h-170.667v128c0 46.933 38.4 85.333 85.333 85.333s85.333-38.4 85.333-85.333v-128z" />
<glyph unicode="&#xe97c;" glyph-name="pin-2" d="M938.667 409.6l-422.4 422.4-59.733-59.733 59.733-59.733-213.333-209.067-59.733 55.467-59.733-59.733 179.2-179.2-243.2-243.2 59.733-59.733 243.2 243.2 179.2-179.2 59.733 59.733-59.733 59.733 209.067 213.333 59.733-59.733 68.267 55.467zM546.133 260.267v0l-179.2 179.2 209.067 209.067 179.2-179.2-209.067-209.067z" />
<glyph unicode="&#xe97d;" glyph-name="tag-2" d="M597.333-17.067c-12.8 0-21.333 4.267-29.867 12.8l-469.333 469.333c-8.533 8.533-12.8 17.067-12.8 29.867v298.667c0 25.6 17.067 42.667 42.667 42.667h298.667c12.8 0 21.333-4.267 29.867-12.8l469.333-469.333c8.533-8.533 12.8-25.6 12.8-38.4-4.267-12.8-12.8-25.6-25.6-29.867l-196.267-76.8-76.8-196.267c-4.267-12.8-17.067-21.333-29.867-25.6-8.533-4.267-8.533-4.267-12.8-4.267zM170.667 512l409.6-409.6 59.733 153.6c4.267 12.8 12.8 21.333 25.6 25.6l153.6 59.733-409.6 409.6h-238.933v-238.933zM384 622.933c0-47.128-38.205-85.333-85.333-85.333s-85.333 38.205-85.333 85.333c0 47.128 38.205 85.333 85.333 85.333s85.333-38.205 85.333-85.333z" />
<glyph unicode="&#xe97e;" glyph-name="vote-star" d="M768-17.067c-8.533 0-17.067 4.267-25.6 8.533l-230.4 153.6-230.4-153.6c-12.8-8.533-34.133-8.533-46.933 0s-21.333 29.867-17.067 46.933l76.8 273.067-196.267 196.267c-12.8 12.8-17.067 29.867-8.533 46.933 4.267 17.067 21.333 25.6 38.4 25.6h230.4l115.2 230.4c12.8 29.867 64 29.867 76.8 0l115.2-230.4h230.4c17.067 0 34.133-8.533 38.4-25.6 8.533-17.067 4.267-34.133-8.533-46.933l-196.267-196.267 76.8-273.067c4.267-17.067 0-34.133-17.067-46.933-4.267-4.267-12.8-8.533-21.333-8.533zM512 238.933c8.533 0 17.067-4.267 25.6-8.533l157.867-106.667-55.467 187.733c-4.267 12.8 0 29.867 12.8 42.667l140.8 140.8h-153.6c-17.067 0-29.867 8.533-38.4 25.6l-89.6 179.2-89.6-179.2c-8.533-17.067-21.333-25.6-38.4-25.6h-153.6l140.8-140.8c12.8-12.8 17.067-25.6 12.8-42.667l-55.467-187.733 157.867 106.667c8.533 4.267 17.067 8.533 25.6 8.533z" />
<glyph unicode="&#xe97f;" glyph-name="vote-flag-3" d="M853.333 665.6h-298.667v128c0 25.6-17.067 42.667-42.667 42.667h-341.333c-25.6 0-42.667-17.067-42.667-42.667v-810.667h85.333v341.333h85.333v-128c0-25.6 17.067-42.667 42.667-42.667h512c25.6 0 42.667 17.067 42.667 42.667v426.667c0 21.333-17.067 42.667-42.667 42.667zM213.333 750.933h256v-341.333h-256v341.333zM810.667 238.933h-366.933l98.133 98.133c8.533 8.533 12.8 17.067 12.8 29.867v213.333h256v-341.333z" />
<glyph unicode="&#xe980;" glyph-name="vote-thumbs-down" d="M896 836.267h-170.667c-25.6 0-42.667-17.067-42.667-42.667v-21.333l-153.6 64c-4.267 0-12.8 0-17.067 0h-341.333c-21.333 0-38.4-12.8-42.667-34.133l-85.333-469.333c-4.267-12.8 0-25.6 8.533-34.133 8.533-12.8 21.333-17.067 34.133-17.067h256v-170.667c0-25.6 17.067-42.667 42.667-42.667h128c17.067 0 34.133 8.533 38.4 25.6l115.2 273.067h17.067c0-25.6 17.067-42.667 42.667-42.667h170.667c25.6 0 42.667 17.067 42.667 42.667v426.667c0 25.6-17.067 42.667-42.667 42.667zM640 452.267c-17.067 0-34.133-8.533-38.4-25.6l-119.467-273.067h-55.467v170.667c0 25.6-17.067 42.667-42.667 42.667h-247.467l68.267 384h298.667l179.2-72.533v-226.133h-42.667zM853.333 409.6h-85.333v341.333h85.333v-341.333z" />
<glyph unicode="&#xe981;" glyph-name="vote-thumbs-up" d="M972.8 605.867c-8.533 12.8-21.333 17.067-34.133 17.067h-256v170.667c0 25.6-17.067 42.667-42.667 42.667h-128c-17.067 0-34.133-8.533-38.4-25.6l-119.467-273.067h-12.8c0 25.6-17.067 42.667-42.667 42.667h-170.667c-25.6 0-42.667-17.067-42.667-42.667v-426.667c0-25.6 17.067-42.667 42.667-42.667h170.667c25.6 0 42.667 17.067 42.667 42.667v21.333l153.6-64c4.267 0 8.533-4.267 17.067-4.267h341.333c21.333 0 38.4 12.8 42.667 34.133l85.333 469.333c0 17.067 0 29.867-8.533 38.4zM256 153.6h-85.333v341.333h85.333v-341.333zM819.2 153.6h-298.667l-179.2 72.533v226.133h42.667c17.067 0 34.133 8.533 38.4 25.6l119.467 273.067h55.467v-170.667c0-25.6 17.067-42.667 42.667-42.667h247.467l-68.267-384z" />
<glyph unicode="&#xe982;" glyph-name="check-box" d="M768-17.067h-597.333c-46.933 0-85.333 38.4-85.333 85.333v512c0 46.933 38.4 85.333 85.333 85.333h426.667v-85.333h-426.667v-512h597.333v213.333h85.333v-213.333c0-46.933-38.4-85.333-85.333-85.333zM473.6 162.133l-209.067 209.067 72.533 76.8 132.267-132.267 388.267 426.667 81.067-68.267z" />
<glyph unicode="&#xe983;" glyph-name="graduation-hat" d="M955.733 618.667l-426.667 213.333c-12.8 4.267-25.6 4.267-38.4 0l-426.667-213.333c-4.267-4.267-12.8-12.8-17.067-21.333-4.267-4.267-4.267-12.8-4.267-17.067v-247.467c0-25.6 17.067-42.667 42.667-42.667s42.667 17.067 42.667 42.667v183.467l85.333-34.133v-209.067c0-17.067 8.533-29.867 25.6-38.4 72.533-34.133 145.067-81.067 273.067-81.067s200.533 46.933 273.067 81.067c12.8 8.533 25.6 21.333 25.6 38.4v209.067l145.067 55.467c12.8 8.533 25.6 25.6 25.6 42.667s-8.533 29.867-25.6 38.4zM725.333 298.667l-42.667-17.067c-106.667-55.467-234.667-55.467-345.6 0l-42.667 21.333v149.333l196.267-81.067c4.267 0 8.533-4.267 17.067-4.267s12.8 0 17.067 4.267l196.267 81.067v-153.6zM512 456.533l-324.267 128 324.267 162.133 324.267-162.133-324.267-128zM85.333 238.933c-25.6 0-42.667-17.067-42.667-42.667v-85.333c0-25.6 17.067-42.667 42.667-42.667s42.667 17.067 42.667 42.667v85.333c0 25.6-17.067 42.667-42.667 42.667z" />
<glyph unicode="&#xe984;" glyph-name="rewards-banner-check" d="M725.333 409.6v-302.933l-187.733 128c-12.8 8.533-34.133 8.533-46.933 0l-187.733-128v644.267h512c0 46.933-38.4 85.333-85.333 85.333h-430.933c-46.933 0-85.333-38.4-85.333-85.333v-725.333c0-17.067 8.533-29.867 21.333-38.4s29.867-8.533 42.667 0l230.4 153.6 230.4-153.6c8.533-4.267 17.067-8.533 25.6-8.533s12.8 0 21.333 4.267c12.8 8.533 21.333 21.333 21.333 38.4v384h-81.067zM512 332.8l-166.4 166.4 76.8 76.8 89.6-89.6 174.933 174.933 76.8-76.8z" />
<glyph unicode="&#xe985;" glyph-name="rewards-gift" d="M853.333 580.267h-132.267c21.333 8.533 38.4 21.333 51.2 38.4 51.2 51.2 51.2 132.267 0 179.2-46.933 46.933-132.267 46.933-179.2 0-72.533-68.267-81.067-200.533-81.067-213.333 0 12.8-8.533 145.067-81.067 217.6-46.933 46.933-132.267 46.933-179.2-4.267-25.6-21.333-38.4-55.467-38.4-89.6s12.8-68.267 38.4-89.6c12.8-17.067 34.133-29.867 51.2-38.4h-132.267c-46.933 0-85.333-38.4-85.333-85.333v-128c0-25.6 17.067-42.667 42.667-42.667v-256c0-46.933 38.4-85.333 85.333-85.333h597.333c46.933 0 85.333 38.4 85.333 85.333v256c25.6 0 42.667 17.067 42.667 42.667v128c0 46.933-38.4 85.333-85.333 85.333zM341.333 68.267h-128v256h128v-256zM341.333 409.6h-170.667v85.333h170.667v-85.333zM311.467 678.4c-8.533 8.533-12.8 17.067-12.8 29.867s4.267 21.333 12.8 29.867 17.067 12.8 29.867 12.8 21.333-4.267 29.867-12.8c25.6-25.6 38.4-68.267 46.933-106.667-38.4 8.533-81.067 21.333-106.667 46.933zM597.333 68.267h-170.667v256h170.667v-256zM597.333 409.6h-170.667v85.333h170.667v-85.333zM652.8 738.133c8.533 8.533 17.067 12.8 29.867 12.8s21.333-4.267 29.867-12.8c17.067-17.067 17.067-42.667 0-59.733-25.6-25.6-72.533-38.4-106.667-46.933 8.533 38.4 21.333 81.067 46.933 106.667zM810.667 68.267h-128v256h128v-256zM853.333 409.6h-170.667v85.333h170.667v-85.333z" />
<glyph unicode="&#xe986;" glyph-name="rewards-trophy-5" d="M896 793.6h-140.8c-12.8 25.6-42.667 42.667-72.533 42.667h-341.333c-29.867 0-59.733-17.067-72.533-42.667h-140.8c-25.6 0-42.667-17.067-42.667-42.667v-128c0-42.667 17.067-76.8 46.933-102.4l179.2-140.8c38.4-46.933 93.867-81.067 157.867-93.867v-89.6h-85.333c-25.6 0-42.667-17.067-42.667-42.667v-85.333h-42.667v-85.333h426.667v85.333h-42.667v85.333c0 25.6-17.067 42.667-42.667 42.667h-85.333v89.6c64 12.8 119.467 46.933 157.867 93.867l179.2 140.8c29.867 25.6 46.933 59.733 46.933 102.4v128c0 25.6-17.067 42.667-42.667 42.667zM597.333 68.267h-170.667v42.667h170.667v-42.667zM187.733 588.8c-12.8 8.533-17.067 21.333-17.067 34.133v85.333h85.333v-170.667c0 0 0-4.267 0-4.267l-68.267 55.467zM512 366.933c-93.867 0-170.667 76.8-170.667 170.667v213.333h341.333v-213.333c0-93.867-76.8-170.667-170.667-170.667zM853.333 622.933c0-12.8-4.267-25.6-17.067-34.133l-68.267-55.467c0 0 0 4.267 0 4.267v170.667h85.333v-85.333z" />
<glyph unicode="&#xe987;" glyph-name="shield-8" d="M810.667 665.6c-145.067 0-264.533 153.6-264.533 153.6-17.067 21.333-51.2 21.333-68.267 0 0 0-119.467-153.6-264.533-153.6-25.6 0-42.667-17.067-42.667-42.667v-298.667c0-162.133 290.133-320 320-337.067 8.533-4.267 12.8-4.267 21.333-4.267s12.8 0 21.333 4.267c34.133 17.067 320 174.933 320 337.067v298.667c0 25.6-17.067 42.667-42.667 42.667zM768 324.267c0-81.067-149.333-192-256-251.733-93.867 55.467-256 170.667-256 251.733v260.267c115.2 17.067 209.067 98.133 256 145.067 46.933-51.2 140.8-128 256-145.067v-260.267zM469.333 452.267h-128l85.333-85.333-42.667-128 128 85.333 128-85.333-42.667 128 85.333 85.333h-128l-42.667 128z" />
<glyph unicode="&#xe988;" glyph-name="stamp" d="M213.333 68.267c0-46.933 38.4-85.333 85.333-85.333h426.667c46.933 0 85.333 38.4 85.333 85.333v42.667h-597.333v-42.667zM823.467 413.867l-183.467 29.867v153.6c25.6 29.867 42.667 68.267 42.667 110.933 0 93.867-76.8 170.667-170.667 170.667s-170.667-76.8-170.667-170.667c0-42.667 17.067-81.067 42.667-110.933v-149.333l-183.467-29.867c-42.667-8.533-72.533-42.667-72.533-85.333v-179.2h768v179.2c0 38.4-29.867 76.8-72.533 81.067zM810.667 238.933h-597.333v93.867l256 42.667v256l-12.8 12.8c-21.333 17.067-29.867 38.4-29.867 64 0 46.933 38.4 85.333 85.333 85.333s85.333-38.4 85.333-85.333c0-25.6-8.533-46.933-29.867-64l-12.8-12.8v-260.267l256-42.667v-89.6z" />
<glyph unicode="&#xe989;" glyph-name="scale" d="M925.867 324.267l-98.133 298.667h110.933v85.333h-384v85.333h-85.333v-85.333h-384v-85.333h110.933l-98.133-298.667h-55.467v-42.667c0-119.467 93.867-213.333 213.333-213.333s213.333 93.867 213.333 213.333v42.667h-55.467l-98.133 298.667h153.6v-42.667h85.333v42.667h153.6l-98.133-298.667h-55.467v-42.667c0-119.467 93.867-213.333 213.333-213.333s213.333 93.867 213.333 213.333v42.667h-55.467zM256 153.6c-55.467 0-102.4 34.133-119.467 85.333h243.2c-21.333-51.2-68.267-85.333-123.733-85.333zM187.733 324.267l68.267 204.8 68.267-204.8h-136.533zM768 529.067l68.267-204.8h-136.533l68.267 204.8zM768 153.6c-55.467 0-102.4 34.133-119.467 85.333h243.2c-21.333-51.2-68.267-85.333-123.733-85.333z" />
<glyph unicode="&#xe98a;" glyph-name="temple-2" d="M934.4 81.067l-42.667 128c-4.267 17.067-21.333 29.867-38.4 29.867h-42.667v298.667h42.667c25.6 0 42.667 17.067 42.667 42.667v85.333c0 17.067-12.8 34.133-25.6 38.4l-341.333 128c-8.533 4.267-21.333 4.267-29.867 0l-341.333-128c-17.067-4.267-29.867-21.333-29.867-38.4v-85.333c0-25.6 17.067-42.667 42.667-42.667h42.667v-298.667h-42.667c-17.067 0-34.133-12.8-38.4-29.867l-42.667-128c-8.533-12.8-4.267-25.6 4.267-38.4s21.333-17.067 34.133-17.067h768c12.8 0 25.6 8.533 34.133 17.067 8.533 12.8 8.533 25.6 4.267 38.4zM725.333 238.933h-85.333v298.667h85.333v-298.667zM554.667 537.6v-298.667h-85.333v298.667h85.333zM213.333 635.733l298.667 110.933 298.667-110.933v-12.8h-597.333v12.8zM298.667 537.6h85.333v-298.667h-85.333v298.667zM187.733 110.933l12.8 42.667h622.933l12.8-42.667h-648.533z" />
<glyph unicode="&#xe98b;" glyph-name="brick-wall" d="M896 366.933h-170.667v128c0 25.6-17.067 42.667-42.667 42.667h-42.667v128c0 25.6-17.067 42.667-42.667 42.667h-469.333c-25.6 0-42.667-17.067-42.667-42.667v-682.667c0-25.6 17.067-42.667 42.667-42.667h768c25.6 0 42.667 17.067 42.667 42.667v341.333c0 25.6-17.067 42.667-42.667 42.667zM853.333 196.267h-213.333v85.333h213.333v-85.333zM384 196.267v85.333h170.667v-85.333h-170.667zM170.667 196.267v85.333h128v-85.333h-128zM384 452.267v-85.333h-213.333v85.333h213.333zM469.333 366.933v85.333h170.667v-85.333h-170.667zM554.667 537.6h-170.667v85.333h170.667v-85.333zM170.667 622.933h128v-85.333h-128v85.333zM170.667 110.933h213.333v-85.333h-213.333v85.333zM469.333 110.933h170.667v-85.333h-170.667v85.333zM853.333 25.6h-128v85.333h128v-85.333z" />
<glyph unicode="&#xe98c;" glyph-name="couch" d="M896 558.933c-12.8 106.667-102.4 192-213.333 192h-341.333c-110.933 0-200.533-85.333-213.333-192-72.533-12.8-128-72.533-128-149.333v-213.333c0-46.933 38.4-85.333 85.333-85.333v-42.667h85.333v42.667h682.667v-42.667h85.333v42.667c46.933 0 85.333 38.4 85.333 85.333v213.333c0 76.8-55.467 136.533-128 149.333zM810.667 541.867c-51.2-25.6-85.333-76.8-85.333-132.267h-170.667v256h128c68.267 0 123.733-55.467 128-123.733zM341.333 665.6h128v-256h-170.667c0 59.733-34.133 110.933-85.333 132.267 4.267 68.267 59.733 123.733 128 123.733zM938.667 196.267h-853.333v213.333c0 34.133 29.867 64 64 64s64-29.867 64-64v-42.667c0-25.6 17.067-42.667 42.667-42.667h512c25.6 0 42.667 17.067 42.667 42.667v42.667c0 34.133 29.867 64 64 64s64-29.867 64-64v-213.333z" />
<glyph unicode="&#xe98d;" glyph-name="hotel-bed-1" d="M913.067 320c-21.333 8.533-38.4 17.067-59.733 25.6v320h-85.333v-85.333h-512v85.333h-85.333v-320c-21.333-8.533-42.667-17.067-59.733-25.6s-25.6-21.333-25.6-38.4v-298.667h85.333v85.333h682.667v-85.333h85.333v298.667c0 17.067-8.533 29.867-25.6 38.4zM768 494.933v-119.467c-68.267 17.067-140.8 29.867-213.333 34.133v85.333h213.333zM256 494.933h213.333v-89.6c-72.533-4.267-145.067-12.8-213.333-34.133v123.733zM170.667 256c213.333 93.867 469.333 93.867 682.667 0v-102.4h-682.667v102.4z" />
<glyph unicode="&#xe98e;" glyph-name="places-home-1" d="M725.333-17.067h-85.333c-46.933 0-85.333 38.4-85.333 85.333v128h-85.333v-128c0-46.933-38.4-85.333-85.333-85.333h-85.333c-46.933 0-85.333 38.4-85.333 85.333v256h-85.333c-17.067 0-34.133 8.533-38.4 25.6-8.533 17.067-4.267 34.133 8.533 46.933l384 384c17.067 17.067 42.667 17.067 59.733 0l384-384c12.8-12.8 17.067-29.867 8.533-46.933-4.267-17.067-21.333-25.6-38.4-25.6h-85.333v-256c0-46.933-38.4-85.333-85.333-85.333zM426.667 281.6h170.667c25.6 0 42.667-17.067 42.667-42.667v-170.667h85.333v298.667c0 25.6 17.067 42.667 42.667 42.667h25.6l-281.6 281.6-281.6-281.6h25.6c25.6 0 42.667-17.067 42.667-42.667v-298.667h85.333v170.667c0 25.6 17.067 42.667 42.667 42.667z" />
<glyph unicode="&#xe98f;" glyph-name="table-office" d="M938.667 750.933h-853.333c-25.6 0-42.667-17.067-42.667-42.667v-640h85.333v426.667h426.667v-384c0-25.6 17.067-42.667 42.667-42.667h341.333c25.6 0 42.667 17.067 42.667 42.667v597.333c0 25.6-17.067 42.667-42.667 42.667zM896 665.6v-170.667h-256v170.667h256zM128 580.267v85.333h426.667v-85.333h-426.667zM640 153.6v256h256v-256h-256zM768 580.267c0-23.564-19.103-42.667-42.667-42.667s-42.667 19.103-42.667 42.667c0 23.564 19.103 42.667 42.667 42.667s42.667-19.103 42.667-42.667zM768 324.267c0-23.564-19.103-42.667-42.667-42.667s-42.667 19.103-42.667 42.667c0 23.564 19.103 42.667 42.667 42.667s42.667-19.103 42.667-42.667z" />
<glyph unicode="&#xe990;" glyph-name="phone-incoming" d="M853.333 494.933h-196.267l268.8 268.8-59.733 59.733-268.8-268.8v196.267h-85.333v-341.333h341.333zM768 281.6h-170.667c-46.933 0-85.333-38.4-85.333-81.067-106.667 17.067-192 98.133-209.067 209.067 46.933 0 81.067 38.4 81.067 85.333v170.667c0 46.933-38.4 85.333-85.333 85.333h-170.667c-46.933 0-85.333-38.4-85.333-85.333v-213.333c0-281.6 230.4-512 512-512h213.333c46.933 0 85.333 38.4 85.333 85.333v170.667c0 46.933-38.4 85.333-85.333 85.333zM554.667 25.6c-234.667 0-426.667 192-426.667 426.667v213.333h170.667v-170.667h-42.667c-12.8 0-21.333-4.267-29.867-12.8s-12.8-17.067-12.8-29.867c4.267-196.267 149.333-341.333 341.333-341.333 25.6 0 42.667 17.067 42.667 42.667v42.667h170.667v-170.667h-213.333z" />
<glyph unicode="&#xe991;" glyph-name="phone-outgoing" d="M512 750.933v-85.333h196.267l-268.8-268.8 59.733-59.733 268.8 268.8v-196.267h85.333v341.333zM768 281.6h-170.667c-46.933 0-85.333-38.4-85.333-81.067-106.667 17.067-192 98.133-209.067 209.067 46.933 0 81.067 38.4 81.067 85.333v170.667c0 46.933-38.4 85.333-85.333 85.333h-170.667c-46.933 0-85.333-38.4-85.333-85.333v-213.333c0-281.6 230.4-512 512-512h213.333c46.933 0 85.333 38.4 85.333 85.333v170.667c0 46.933-38.4 85.333-85.333 85.333zM554.667 25.6c-234.667 0-426.667 192-426.667 426.667v213.333h170.667v-170.667h-42.667c-12.8 0-21.333-4.267-29.867-12.8s-12.8-17.067-12.8-29.867c4.267-196.267 149.333-341.333 341.333-341.333 25.6 0 42.667 17.067 42.667 42.667v42.667h170.667v-170.667h-213.333z" />
<glyph unicode="&#xe992;" glyph-name="phone-pending" d="M576 452.267c0-35.346-28.654-64-64-64s-64 28.654-64 64c0 35.346 28.654 64 64 64s64-28.654 64-64zM746.667 452.267c0-35.346-28.654-64-64-64s-64 28.654-64 64c0 35.346 28.654 64 64 64s64-28.654 64-64zM917.333 452.267c0-35.346-28.654-64-64-64s-64 28.654-64 64c0 35.346 28.654 64 64 64s64-28.654 64-64zM768-59.733h-213.333c-281.6 0-512 230.4-512 512v213.333c0 46.933 38.4 85.333 85.333 85.333h170.667c46.933 0 85.333-38.4 85.333-85.333v-170.667c0-46.933-34.133-81.067-81.067-85.333 17.067-110.933 102.4-192 209.067-209.067 0 46.933 38.4 81.067 85.333 81.067h170.667c46.933 0 85.333-38.4 85.333-85.333v-170.667c0-46.933-38.4-85.333-85.333-85.333zM128 665.6v-213.333c0-234.667 192-426.667 426.667-426.667h213.333v170.667h-170.667v-42.667c0-25.6-17.067-42.667-42.667-42.667-192 0-337.067 145.067-341.333 341.333 0 12.8 4.267 21.333 12.8 29.867s17.067 12.8 29.867 12.8h42.667v170.667h-170.667z" />
<glyph unicode="&#xe993;" glyph-name="phone-speaker" d="M725.333 366.933h-85.333c0 93.867-76.8 170.667-170.667 170.667v85.333c140.8 0 256-115.2 256-256zM896 366.933h-85.333c0 187.733-153.6 341.333-341.333 341.333v85.333c234.667 0 426.667-192 426.667-426.667zM469.333 452.267v-85.333h85.333c0 46.933-38.4 85.333-85.333 85.333zM768-59.733h-213.333c-281.6 0-512 230.4-512 512v213.333c0 46.933 38.4 85.333 85.333 85.333h170.667c46.933 0 85.333-38.4 85.333-85.333v-170.667c0-46.933-34.133-81.067-81.067-85.333 17.067-110.933 102.4-192 209.067-209.067 0 46.933 38.4 81.067 85.333 81.067h170.667c46.933 0 85.333-38.4 85.333-85.333v-170.667c0-46.933-38.4-85.333-85.333-85.333zM128 665.6v-213.333c0-234.667 192-426.667 426.667-426.667h213.333v170.667h-170.667v-42.667c0-25.6-17.067-42.667-42.667-42.667-192 0-337.067 145.067-341.333 341.333 0 12.8 4.267 21.333 12.8 29.867s17.067 12.8 29.867 12.8h42.667v170.667h-170.667z" />
<glyph unicode="&#xe994;" glyph-name="at-sign" d="M512 836.267c-234.667 0-426.667-192-426.667-426.667s192-426.667 426.667-426.667c85.333 0 170.667 25.6 243.2 72.533l-46.933 68.267c-59.733-34.133-128-55.467-196.267-55.467-187.733 0-341.333 153.6-341.333 341.333s153.6 341.333 341.333 341.333 341.333-153.6 341.333-341.333v-34.133c0-59.733-25.6-93.867-68.267-93.867v0c-4.267 0-4.267 0-8.533 0h-8.533c-25.6 0-59.733 34.133-59.733 59.733v68.267c0 106.667-89.6 196.267-196.267 196.267s-196.267-89.6-196.267-196.267 89.6-196.267 196.267-196.267c51.2 0 98.133 21.333 136.533 55.467 25.6-42.667 76.8-72.533 119.467-72.533v0c4.267 0 4.267 0 8.533 0h8.533c93.867 0 153.6 72.533 153.6 179.2v34.133c0 234.667-192 426.667-426.667 426.667zM512 298.667c-59.733 0-110.933 51.2-110.933 110.933s51.2 110.933 110.933 110.933c59.733 0 110.933-51.2 110.933-110.933s-51.2-110.933-110.933-110.933z" />
<glyph unicode="&#xe995;" glyph-name="email-add" d="M810.667 580.267v128h-85.333v-128h-128v-85.333h128v-128h85.333v128h128v85.333zM597.333 409.6h-512c-46.933 0-85.333-38.4-85.333-85.333v-341.333c0-46.933 38.4-85.333 85.333-85.333h512c46.933 0 85.333 38.4 85.333 85.333v341.333c0 46.933-38.4 85.333-85.333 85.333zM507.733 324.267l-166.4-119.467-166.4 119.467h332.8zM85.333-17.067v302.933l230.4-166.4c8.533-4.267 17.067-8.533 25.6-8.533s17.067 4.267 25.6 8.533l230.4 166.4v-302.933h-512z" />
<glyph unicode="&#xe996;" glyph-name="email-close" d="M925.867 678.4l-59.733 59.733-98.133-98.133-98.133 98.133-59.733-59.733 98.133-98.133-98.133-98.133 59.733-59.733 98.133 98.133 98.133-98.133 59.733 59.733-98.133 98.133zM597.333 409.6h-512c-46.933 0-85.333-38.4-85.333-85.333v-341.333c0-46.933 38.4-85.333 85.333-85.333h512c46.933 0 85.333 38.4 85.333 85.333v341.333c0 46.933-38.4 85.333-85.333 85.333zM507.733 324.267l-166.4-119.467-166.4 119.467h332.8zM85.333-17.067v302.933l230.4-166.4c8.533-4.267 17.067-8.533 25.6-8.533s17.067 4.267 25.6 8.533l230.4 166.4v-302.933h-512z" />
<glyph unicode="&#xe997;" glyph-name="email-download" d="M951.467 780.8l-98.133-98.133v238.933h-85.333v-238.933l-98.133 98.133-59.733-59.733 200.533-200.533 200.533 200.533zM597.333 409.6h-512c-46.933 0-85.333-38.4-85.333-85.333v-341.333c0-46.933 38.4-85.333 85.333-85.333h512c46.933 0 85.333 38.4 85.333 85.333v341.333c0 46.933-38.4 85.333-85.333 85.333zM507.733 324.267l-166.4-119.467-166.4 119.467h332.8zM85.333-17.067v302.933l230.4-166.4c8.533-4.267 17.067-8.533 25.6-8.533s17.067 4.267 25.6 8.533l230.4 166.4v-302.933h-512z" />
<glyph unicode="&#xe998;" glyph-name="email-edit" d="M597.333-17.067h-512v302.933l230.4-166.4c8.533-4.267 17.067-8.533 25.6-8.533s17.067 4.267 25.6 8.533l128 89.6-51.2 72.533-102.4-76.8-166.4 119.467h209.067v85.333h-298.667c-46.933 0-85.333-38.4-85.333-85.333v-341.333c0-46.933 38.4-85.333 85.333-85.333h512c46.933 0 85.333 38.4 85.333 85.333v256h-85.333v-256zM883.2 908.8c-17.067 17.067-42.667 17.067-59.733 0l-298.667-298.667c-4.267-4.267-8.533-12.8-12.8-21.333l-42.667-170.667c-4.267-12.8 0-29.867 12.8-38.4s25.6-12.8 38.4-12.8l170.667 42.667c8.533 0 12.8 4.267 21.333 12.8l298.667 298.667c17.067 17.067 17.067 42.667 0 59.733l-128 128zM661.333 490.667l-89.6-21.333 21.333 89.6 132.267 132.267 68.267-68.267-132.267-132.267zM853.333 682.667l-68.267 68.267 68.267 68.267 68.267-68.267-68.267-68.267z" />
<glyph unicode="&#xe999;" glyph-name="email-envelope" d="M853.333 622.933h-682.667c-46.933 0-85.333-38.4-85.333-85.333v-384c0-46.933 38.4-85.333 85.333-85.333h682.667c46.933 0 85.333 38.4 85.333 85.333v384c0 46.933-38.4 85.333-85.333 85.333zM772.267 537.6l-260.267-162.133-260.267 162.133h520.533zM170.667 153.6v332.8l320-200.533c8.533-4.267 12.8-8.533 21.333-8.533s17.067 4.267 21.333 8.533l320 200.533v-332.8h-682.667z" />
</font>
</defs>
</svg>
