<?xml version="1.0" standalone="no"?>
<!DOCTYPE svg PUBLIC "-//W3C//DTD SVG 1.1//EN" "http://www.w3.org/Graphics/SVG/1.1/DTD/svg11.dtd" >
<!--
2020-7-6: Created.
-->
<svg xmlns="http://www.w3.org/2000/svg">
<metadata>
Created by FontForge 20120731 at Mon Jul  6 08:26:01 2020
 By root
Created by root with FontForge 2.0 (http://fontforge.sf.net)
</metadata>
<defs>
<font id="jlearn-fonts" horiz-adv-x="512" >
  <font-face 
    font-family="jlearn-fonts"
    font-weight="500"
    font-stretch="normal"
    units-per-em="512"
    panose-1="2 0 6 3 0 0 0 0 0 0"
    ascent="448"
    descent="-64"
    bbox="-1.12012 -65.5996 896 448.8"
    underline-thickness="25.6"
    underline-position="-51.2"
    unicode-range="U+0020-F17D"
  />
    <missing-glyph />
    <glyph glyph-name="space" unicode=" " horiz-adv-x="200" 
 />
    <glyph glyph-name="uniF165" unicode="&#xf165;" 
d="M125.12 328.96c-11.1289 0.0869141 -20.1611 9.19043 -20.1611 20.3193l0.000976562 0.161133v77.5996c-0.00585938 0.176758 -0.00976562 0.463867 -0.00976562 0.640625c0 11.1338 9.03613 20.2373 20.1699 20.3193h7.36035
c11.1338 -0.0820312 20.1699 -9.18555 20.1699 -20.3193c0 -0.176758 -0.00488281 -0.463867 -0.0107422 -0.640625v-77.5996l0.000976562 -0.161133c0 -11.1289 -9.03223 -20.2324 -20.1602 -20.3193h-7.36035zM125.12 328.96zM384 329.44
c-11.1289 0.0869141 -20.1602 9.19043 -20.1602 20.3193v0.160156v77.5996v0.161133c0 11.1289 9.03125 20.2324 20.1602 20.3193h7.04004c11.1289 -0.0869141 20.1602 -9.19043 20.1602 -20.3193v-0.161133v-77.5996v-0.162109c0 -11.042 -8.95996 -20.1445 -20 -20.3174
h-7.2002zM384 329.44zM480 405.92c17.6641 -0.597656 32 -15.4268 32 -33.1006v-0.179688v-402.08v-0.178711c0 -17.6738 -14.3359 -32.5039 -32 -33.1006h-447.2c-18.1055 0.174805 -32.7998 15.0117 -32.7998 33.1182v0.161133v402.08v0.162109
c0 18.1064 14.6943 32.9434 32.7998 33.1182h55.8398v-56.4795l-0.000976562 -0.322266c0 -20.1377 16.3438 -36.624 36.4814 -36.7979h7.36035c20.1377 0.173828 36.4805 16.6602 36.4805 36.7979l-0.000976562 0.322266v56.4795h178.24v-56l-0.00292969 -0.480469
c0 -20.3154 16.4873 -36.873 36.8027 -36.959h7.04004c1.27441 -0.1875 3.35352 -0.338867 4.6416 -0.338867c17.6641 0 32 14.3359 32 32l-0.00195312 0.338867v61.4395h52.3203zM480 -29.4404v304h-447.2v-304h447.2zM480 -29.4404zM272.96 172.32v-0.640625
c-2.2959 0.0849609 -4.16016 2.01953 -4.16016 4.31738v0.00292969v52.3203v0.00292969c0 2.29785 1.86426 4.23145 4.16016 4.31641h58.7197c2.38477 0 4.32031 -1.93457 4.32031 -4.31934v-52.3203c-0.295898 -1.97949 -2.15918 -3.62793 -4.16016 -3.67969h-58.8799z
M272.96 171.68zM369.12 172.32v-0.640625c-2.38477 0 -4.32031 1.93555 -4.32031 4.32031v52.3203c0 2.38477 1.93555 4.31934 4.32031 4.31934h58.5596c2.38477 0 4.32031 -1.93457 4.32031 -4.31934v-52.3203c-0.295898 -1.97949 -2.15918 -3.62793 -4.16016 -3.67969
h-58.7197zM369.12 171.68zM80.96 87.6797v0.320312c-0.0439453 -0.00195312 -0.116211 -0.00292969 -0.160156 -0.00292969c-2.2959 0 -4.16016 1.86328 -4.16016 4.16016v0.00292969v51.8398v0.00292969c0 2.29688 1.86426 4.16016 4.16016 4.16016
c0.0439453 0 0.116211 -0.000976562 0.160156 -0.00292969h58.7197c0.0449219 0.00195312 0.116211 0.00292969 0.160156 0.00292969c2.29688 0 4.16016 -1.86328 4.16016 -4.16016v-0.00292969v-52.1602v-0.00292969c0 -2.2959 -1.86328 -4.16016 -4.16016 -4.16016
c-0.0439453 0 -0.115234 0.00195312 -0.160156 0.00292969h-58.7197zM80.96 88zM176.96 87.6797v0.320312c-0.0439453 -0.00195312 -0.116211 -0.00292969 -0.160156 -0.00292969c-2.2959 0 -4.16016 1.86328 -4.16016 4.16016v0.00292969v51.8398v0.00292969
c0 2.29688 1.86426 4.16016 4.16016 4.16016c0.0439453 0 0.116211 -0.000976562 0.160156 -0.00292969h58.8799c2.29688 0 4.16016 -1.86426 4.16016 -4.16016v-52.1602c0 -2.2959 -1.86328 -4.16016 -4.16016 -4.16016h-58.8799zM176.96 88zM272.96 87.6797v0.320312
c-2.2959 0 -4.16016 1.86328 -4.16016 4.16016v51.8398c0 2.2959 1.86426 4.16016 4.16016 4.16016v0h58.8799c0.0439453 0.00195312 0.116211 0.00292969 0.160156 0.00292969c2.2959 0 4.16016 -1.86328 4.16016 -4.16016v-0.00292969v-52.1602v-0.00292969
c0 -2.2959 -1.86426 -4.16016 -4.16016 -4.16016c-0.0439453 0 -0.116211 0.00195312 -0.160156 0.00292969h-58.8799zM272.96 88zM369.12 87.6797v0.320312c-0.0439453 -0.00195312 -0.116211 -0.00292969 -0.160156 -0.00292969
c-2.2959 0 -4.16016 1.86328 -4.16016 4.16016v0.00292969v51.8398v0.00292969c0 2.29688 1.86426 4.16016 4.16016 4.16016c0.0439453 0 0.116211 -0.000976562 0.160156 -0.00292969h58.7197c0.0439453 0.00195312 0.116211 0.00292969 0.160156 0.00292969
c2.2959 0 4.16016 -1.86328 4.16016 -4.16016v-0.00292969v-52.1602v-0.00292969c0 -2.2959 -1.86426 -4.16016 -4.16016 -4.16016c-0.0439453 0 -0.116211 0.00195312 -0.160156 0.00292969h-58.7197zM369.12 88zM139.68 63.2002
c2.38477 0 4.32031 -1.93555 4.32031 -4.32031v-51.6797c0 -2.38477 -1.93555 -4.32031 -4.32031 -4.32031v0h-58.7197c-2.38477 0 -4.32031 1.93555 -4.32031 4.32031v51.6797c0 2.38477 1.93555 4.32031 4.32031 4.32031h58.7197zM139.68 63.2002zM235.84 63.2002
c2.29688 -0.0849609 4.16016 -2.01953 4.16016 -4.31738v-0.00292969v-51.6797v-0.00292969c0 -2.29785 -1.86328 -4.23242 -4.16016 -4.31738h-58.8799c-2.38477 0 -4.32031 1.93555 -4.32031 4.32031v51.6797c0 2.38477 1.93555 4.32031 4.32031 4.32031h58.8799z
M235.84 63.2002zM331.84 63.2002c2.38477 0 4.32031 -1.93555 4.32031 -4.32031v-51.6797c0 -2.38477 -1.93555 -4.32031 -4.32031 -4.32031h-58.8799c-2.2959 0.0849609 -4.16016 2.01953 -4.16016 4.31738v0.00292969v51.6797v0.00292969
c0 2.29785 1.86426 4.23242 4.16016 4.31738h58.8799zM331.84 63.2002zM427.84 63.2002c2.38477 0 4.32031 -1.93555 4.32031 -4.32031v-51.6797c0 -2.38477 -1.93555 -4.32031 -4.32031 -4.32031h-58.7197c-2.38477 0 -4.32031 1.93555 -4.32031 4.32031v51.6797
c0 2.38477 1.93555 4.32031 4.32031 4.32031h58.7197zM427.84 63.2002z" />
    <glyph glyph-name="uniF168" unicode="&#xf168;" 
d="M475.36 379.68v0v-0.479492v-32.4805v-69.4395h-36.4805v57.9199v32.96l-7.2002 -2.08008l-175.68 -54.7197l-109.76 34.2393v0l-109.601 34.0801l0.320312 0.160156l219.04 68.1602zM256 4.32031c-0.504883 -0.0078125 -1.3252 -0.0136719 -1.83008 -0.0136719
c-37.8682 0 -85.9346 25.3809 -107.29 56.6533c16.6465 4.25684 44.0273 9.13086 61.1201 10.8799h-1.75977c7.09473 0.975586 12.8535 7.58008 12.8535 14.7412c0 0.348633 -0.0244141 0.912109 -0.0537109 1.25879c-0.977539 6.74316 -6.4248 15.2012 -12.1602 18.8799
l-3.04004 2.24023v0c-30.9678 24.8047 -56.7725 77.1318 -57.5996 116.8v5.60059v0v80l109.76 -34.0801l110.56 34.0801v-84.96c-0.827148 -39.6689 -26.6318 -91.9951 -57.5996 -116.801v0s-16 -9.2793 -16 -21.2793
c-0.0292969 -0.34668 -0.0537109 -0.911133 -0.0537109 -1.25879c0 -7.16211 5.75879 -13.7656 12.8535 -14.7412h-1.75977c17.0479 -1.75586 44.3574 -6.62988 60.96 -10.8799c-21.3311 -31.5342 -69.541 -57.127 -107.612 -57.127
c-0.37207 0 -0.975586 0.00292969 -1.34766 0.00683594zM400 50.2402c67.6797 -25.2803 112 -67.5205 112 -114.24h-512c0 46.7197 44.3203 88.96 112 114.24c26.9268 -44.1641 90.7598 -80.0068 142.485 -80.0068c0.417969 0 1.09668 0.00292969 1.51465 0.00683594
c0.417969 -0.00390625 1.09668 -0.00683594 1.51465 -0.00683594c51.7256 0 115.559 35.8428 142.485 80.0068z" />
    <glyph glyph-name="uniF166" unicode="&#xf166;" 
d="M174.24 391.68c-6.66699 2.87402 -13.835 10.8311 -16 17.7607c3.05078 1.38867 8.24805 2.51562 11.5996 2.51562c3.35254 0 8.54883 -1.12695 11.6006 -2.51562c6.61816 -2.85547 13.7861 -10.7402 16 -17.6006c-3.10547 -1.38281 -8.38379 -2.50488 -11.7832 -2.50488
c-3.28418 0 -8.39941 1.05078 -11.417 2.34473zM176 424.64c-2.82812 -6.64844 -10.7129 -13.8164 -17.5996 -16c-0.957031 2.64062 -1.73438 7.0625 -1.73438 9.87012c0 3.95117 1.49414 9.99414 3.33398 13.4902c2.6582 6.55957 10.2568 13.7275 16.96 16
c1.10742 -2.81836 2.00684 -7.56348 2.00684 -10.5918c0 -3.71484 -1.3291 -9.43457 -2.9668 -12.7686zM144 376.32c-6.8125 1.82422 -14.9121 8.41797 -18.0801 14.7197c3.90527 2.58887 10.877 4.69043 15.5625 4.69043c2.10156 0 5.45117 -0.452148 7.47754 -1.01074
c6.82031 -1.78027 14.8486 -8.375 17.9199 -14.7197c-3.91699 -2.55762 -10.8926 -4.63379 -15.5713 -4.63379c-2.05176 0 -5.32617 0.427734 -7.30859 0.954102zM140.64 409.28c-1.83887 -6.80078 -8.43359 -14.9004 -14.7197 -18.0801
c-2.58691 3.87402 -4.68652 10.8008 -4.68652 15.46c0 2.08496 0.451172 5.40918 1.00684 7.41992c1.81055 6.74023 8.33301 14.7676 14.5596 17.9199c2.60449 -3.94238 4.71875 -10.9756 4.71875 -15.7002c0 -1.96777 -0.393555 -5.1123 -0.878906 -7.01953zM116.8 355.84
c-7.1748 0.508789 -16.4932 5.59766 -20.7998 11.3604c4.52344 4.29102 13.2549 7.77344 19.4902 7.77344c7.87012 0 18.0625 -5.13086 22.75 -11.4541c-4.52051 -4.27734 -13.2412 -7.74805 -19.4648 -7.74805c-0.545898 0 -1.43066 0.0302734 -1.97559 0.0683594z
M107.68 387.68c-0.65332 -7.11816 -5.88574 -16.293 -11.6797 -20.4795c-4.30664 4.50586 -7.80273 13.2227 -7.80273 19.4561c0 0.725586 0.0546875 1.90137 0.123047 2.62402c0.725586 7.08984 6.0293 16.1924 11.8398 20.3193
c4.21875 -4.4873 7.64258 -13.1289 7.64258 -19.2881c0 -0.727539 -0.0546875 -1.90723 -0.123047 -2.63184zM93.5996 330.88c-0.674805 -0.0576172 -1.77246 -0.104492 -2.4502 -0.104492c-6.26953 0 -15.0635 3.4873 -19.6299 7.78418
c4.24121 5.58105 13.3447 10.6709 20.3203 11.3604c0.722656 0.0673828 1.89844 0.123047 2.62402 0.123047c6.2334 0 14.9502 -3.49609 19.4561 -7.80273c-4.24121 -5.58105 -13.3447 -10.6709 -20.3203 -11.3604zM80 360.64
c0.046875 -0.611328 0.0839844 -1.60645 0.0839844 -2.2207c0 -6.31836 -3.47852 -15.2158 -7.76367 -19.8594c-5.61816 4.27637 -10.707 13.4512 -11.3604 20.4805c-0.0537109 0.650391 -0.0976562 1.70801 -0.0976562 2.36133c0 6.25195 3.48438 15.0146 7.77734 19.5586
c5.64746 -4.2041 10.7363 -13.3076 11.3604 -20.3203zM74.8799 302.24c-1.94824 -0.492188 -5.16016 -0.891602 -7.16992 -0.891602c-4.70312 0 -11.7412 2.04785 -15.71 4.57129c4.35938 8.63867 15.75 15.6494 25.4258 15.6494
c4.66504 0 11.624 -2.06543 15.5342 -4.60938c-3.16699 -6.30176 -11.2676 -12.8955 -18.0801 -14.7197zM55.6797 328.96c0.501953 -1.9375 0.908203 -5.13379 0.908203 -7.13477c0 -4.74121 -2.12695 -11.7949 -4.74805 -15.7451
c-6.26074 3.18457 -12.7832 11.2842 -14.5596 18.0801c-0.556641 2.00977 -1.00781 5.33398 -1.00781 7.41992c0 4.65918 2.10059 11.585 4.6875 15.46c6.25684 -3.2041 12.8516 -11.3037 14.7197 -18.0801zM61.5996 270.88
c-3.07324 -1.3916 -8.30566 -2.52051 -11.6797 -2.52051s-8.60645 1.12891 -11.6797 2.52051c2.23828 6.86328 9.40625 14.8203 16 17.7598c2.80176 1.1084 7.52051 2.00781 10.5332 2.00781c3.48047 0 8.86816 -1.18652 12.0264 -2.64746
c-2.07812 -6.60449 -8.8877 -14.2744 -15.2002 -17.1201zM37.9199 293.76c1.35449 -3.05762 2.4541 -8.25488 2.4541 -11.5996s-1.09961 -8.54199 -2.4541 -11.6006c-6.77246 1.97852 -14.6572 8.78809 -17.5996 15.2002
c-1.35547 3.05859 -2.45508 8.25488 -2.45508 11.6006c0 3.34473 1.09961 8.54102 2.45508 11.5996c6.7334 -2.02246 14.6182 -8.83203 17.5996 -15.2002zM53.7598 237.44c-4.05859 -2.80859 -11.3584 -5.08789 -16.2949 -5.08789
c-1.8418 0 -4.79199 0.34375 -6.58496 0.767578c1.6582 13.8525 14.3262 25.0957 28.2783 25.0957c1.84766 0 4.80469 -0.347656 6.60156 -0.775391c-0.915039 -6.95898 -6.29102 -15.9189 -12 -20zM26.5596 256c2.80859 -4.05859 5.08789 -11.3594 5.08789 -16.2949
c0 -1.8418 -0.34375 -4.79199 -0.767578 -6.58496c-7.03711 0.783203 -15.9971 6.15918 -20 12c-2.80762 4.05859 -5.08691 11.3594 -5.08691 16.2949c0 1.8418 0.34375 4.79199 0.766602 6.58496c6.95898 -0.915039 15.9189 -6.29102 20 -12zM51.8398 203.36
c-4.52148 -4.62695 -13.4414 -8.38184 -19.9102 -8.38184c-0.511719 0 -1.33984 0.0273438 -1.84961 0.0615234c-0.0263672 0.454102 -0.0478516 1.19238 -0.0478516 1.64746c0 15.7207 12.7588 28.4805 28.4805 28.4805c0.455078 0 1.19336 -0.0214844 1.64746 -0.0478516
c0.0341797 -0.509766 0.0615234 -1.33887 0.0615234 -1.84961c0 -6.46875 -3.75488 -15.3887 -8.38184 -19.9102zM21.7598 216.8c4.61523 -4.62793 8.36133 -13.6885 8.36133 -20.2236c0 -0.424805 -0.0185547 -1.1123 -0.0410156 -1.53613
c-0.509766 -0.0341797 -1.33887 -0.0615234 -1.84961 -0.0615234c-6.46875 0 -15.3887 3.75488 -19.9102 8.38184c-4.6123 4.66895 -8.35449 13.7861 -8.35449 20.3486c0 0.389648 0.015625 1.02148 0.0341797 1.41113
c0.388672 0.0185547 1.02148 0.0341797 1.41113 0.0341797c6.5625 0 15.6787 -3.74219 20.3486 -8.35449zM55.8398 169.6c-3.96875 -5.80273 -12.8574 -11.1787 -19.8398 -12c-0.451172 1.82617 -0.817383 4.83496 -0.817383 6.71582
c0 4.91211 2.30176 12.1533 5.1377 16.165c4.11035 5.62598 13.0703 10.7871 20 11.5195c0.375 -1.67676 0.679688 -4.43359 0.679688 -6.15234c0 -4.93652 -2.31152 -12.2158 -5.16016 -16.248zM23.8398 177.6c5.80664 -4.02344 11.1826 -12.9834 12 -20
c-1.82812 -0.449219 -4.83984 -0.813477 -6.72266 -0.813477c-13.9551 0 -26.498 11.2598 -27.9971 25.1338c1.77734 0.421875 4.7041 0.763672 6.53125 0.763672c4.9082 0 12.1611 -2.27734 16.1885 -5.08398zM65.7598 136.96
c-2.94238 -6.41309 -10.8271 -13.2227 -17.5996 -15.2002c-1.3584 3.08105 -2.45996 8.31348 -2.45996 11.6807c0 3.36621 1.10156 8.59863 2.45996 11.6797c3.10547 6.32324 11.1338 12.9893 17.9199 14.8799c1.23242 -2.9541 2.23242 -7.9502 2.23242 -11.1514
c0 -3.43262 -1.14355 -8.75879 -2.55273 -11.8887zM32.7998 139.36c6.69531 -2.78613 13.8633 -10.6709 16 -17.6006c-3.13867 -1.46289 -8.49805 -2.64941 -11.9609 -2.64941c-11.8057 0 -24.0078 9.21484 -27.2393 20.5693
c2.97266 1.26855 8.00781 2.29785 11.2393 2.29785c3.45898 0 8.81836 -1.17285 11.9609 -2.61719zM81.1201 106.72c-1.79395 -6.83691 -8.3877 -14.9375 -14.7197 -18.0801c-2.58008 3.98633 -4.67285 11.0742 -4.67285 15.8213
c0 2.11719 0.444336 5.49414 0.992188 7.53906c1.82422 6.8125 8.41895 14.9121 14.7207 18.0801c2.63965 -3.90137 4.78223 -10.8916 4.78223 -15.6025c0 -2.18457 -0.494141 -5.65918 -1.10254 -7.75781zM48 103.2c6.85059 -1.77832 14.9502 -8.37207 18.0801 -14.7197
c-3.91699 -2.58496 -10.9043 -4.68164 -15.5967 -4.68164c-9.68945 0 -21.0527 7.04297 -25.3633 15.7207c3.875 2.58789 10.8008 4.6875 15.46 4.6875c2.08496 0 5.41016 -0.451172 7.41992 -1.00684zM101.6 80c-0.657227 -6.99414 -5.74609 -16.0967 -11.3594 -20.3203
c-4.28613 4.64355 -7.76465 13.541 -7.76465 19.8594c0 0.614258 0.0380859 1.60938 0.0839844 2.2207c0.657227 6.99414 5.74707 16.0977 11.3604 20.3203c4.30664 -4.50684 7.80273 -13.2227 7.80273 -19.457c0 -0.725586 -0.0546875 -1.90039 -0.123047 -2.62305z
M69.9199 70.4004c6.97559 -0.69043 16.0791 -5.7793 20.3203 -11.3604c-4.50684 -4.30664 -13.2236 -7.80273 -19.457 -7.80273c-0.725586 0 -1.90039 0.0546875 -2.62305 0.123047c-6.92188 0.725586 -15.9531 5.81543 -20.1602 11.3594
c4.56445 4.29102 13.3525 7.77344 19.6162 7.77344c0.636719 0 1.66895 -0.0419922 2.30371 -0.0927734zM126.56 56.1602c0.046875 -0.612305 0.0849609 -1.60742 0.0849609 -2.2207c0 -6.31934 -3.47852 -15.2158 -7.76465 -19.8594
c-5.58105 4.24121 -10.6699 13.3447 -11.3604 20.3203c-0.0576172 0.674805 -0.104492 1.77246 -0.104492 2.4502c0 6.26953 3.4873 15.0635 7.78516 19.6299c5.61328 -4.22363 10.7021 -13.3271 11.3594 -20.3203zM96.7998 41.7598
c0.612305 0.046875 1.60742 0.0849609 2.2207 0.0849609c6.31934 0 15.2158 -3.47852 19.8594 -7.76465c-4.24121 -5.58105 -13.3447 -10.6699 -20.3203 -11.3604c-0.72168 -0.0673828 -1.89746 -0.12207 -2.62305 -0.12207c-6.2334 0 -14.9502 3.49512 -19.4561 7.80273
c4.24023 5.58105 13.3438 10.6699 20.3193 11.3594zM155.04 37.4404c0.555664 -2.01074 1.00684 -5.33496 1.00684 -7.4209c0 -4.65918 -2.09961 -11.585 -4.68652 -15.46c-8.65332 4.28027 -15.6758 15.5879 -15.6758 25.2412c0 4.74219 2.14844 11.7842 4.7959 15.7188
c6.25977 -3.18359 12.7832 -11.2842 14.5596 -18.0791zM128 18.0801c2.02637 0.557617 5.37598 1.01074 7.47754 1.01074c4.68555 0 11.6572 -2.10156 15.5625 -4.69043c-3.16016 -6.12305 -11.1162 -12.5742 -17.7598 -14.4004
c-1.95508 -0.499023 -5.17969 -0.90332 -7.19824 -0.90332c-4.69727 0 -11.7236 2.05273 -15.6816 4.58301c3.06641 6.16309 10.9512 12.6143 17.5996 14.4004zM186.56 24.1602c1.3584 -3.08105 2.45996 -8.31348 2.45996 -11.6797
c0 -3.36719 -1.10156 -8.59961 -2.45996 -11.6807c-6.77246 1.97754 -14.6572 8.78711 -17.5996 15.2002c-1.3916 3.07324 -2.52051 8.30664 -2.52051 11.6797c0 3.37402 1.12891 8.60645 2.52051 11.6807c6.67285 -2.09375 14.5576 -8.90332 17.5996 -15.2002zM163.52 0
c3.06641 1.42676 8.29883 2.58496 11.6807 2.58496s8.61426 -1.1582 11.6797 -2.58496c-2.28418 -6.79492 -9.45215 -14.6797 -16 -17.5996c-3.05859 -1.35547 -8.25488 -2.45508 -11.5996 -2.45508s-8.54199 1.09961 -11.6006 2.45508
c2.10547 6.89746 9.20215 14.7822 15.8398 17.5996zM214.24 419.84c-2.62305 -0.961914 -7.01855 -1.74316 -9.81152 -1.74316c-3.92578 0 -9.92383 1.49805 -13.3887 3.34375c2.60938 6.65723 10.207 13.9688 16.96 16.3193
c2.57617 0.918945 6.88574 1.66406 9.62012 1.66406c3.98633 0 10.0703 -1.53418 13.5801 -3.42383c-2.69531 -6.54395 -10.2939 -13.7842 -16.96 -16.1602zM288 -64c-23.7695 24.1221 -69.2148 52.1484 -101.44 62.5596l-7.19922 2.56055
c-82.668 28.1221 -150.692 121.808 -151.841 209.12c1.54395 101.342 83.6172 198.898 183.2 217.76v-3.51953c-97.7891 -18.708 -178.285 -114.688 -179.68 -214.24c0.963867 -85.9404 67.7695 -178.193 149.12 -205.92l7.2002 -2.40039
c35.7549 -10.1221 86.9346 -38.7939 114.239 -64zM337.76 391.68c-3.11426 -1.39258 -8.41211 -2.52344 -11.8242 -2.52344c-3.52344 0 -8.97852 1.20215 -12.1758 2.68359c2.21387 6.86035 9.38184 14.7451 16 17.6006c3.05078 1.38867 8.24805 2.51562 11.6006 2.51562
c3.35156 0 8.54883 -1.12695 11.5996 -2.51562c-2.00391 -6.77734 -8.81348 -14.7344 -15.2002 -17.7607zM336 424.64c-1.6377 3.33398 -2.9668 9.05371 -2.9668 12.7686c0 3.02832 0.899414 7.77344 2.00684 10.5918c6.70312 -2.27246 14.3018 -9.44043 16.96 -16
c1.83984 -3.49609 3.33398 -9.53906 3.33398 -13.4902c0 -2.80762 -0.777344 -7.22949 -1.73438 -9.87012c-6.88672 2.18359 -14.7715 9.35156 -17.5996 16zM368 376.32c-1.98242 -0.526367 -5.25684 -0.954102 -7.30859 -0.954102
c-4.67871 0 -11.6543 2.07617 -15.5713 4.63379c3.07129 6.34473 11.0996 12.9395 17.9199 14.7197c2.02637 0.558594 5.37598 1.01074 7.47754 1.01074c4.68555 0 11.6572 -2.10156 15.5625 -4.69043c-3.16797 -6.30176 -11.2676 -12.8955 -18.0801 -14.7197z
M371.36 409.28c-0.485352 1.90723 -0.878906 5.05176 -0.878906 7.01953c0 4.72461 2.11426 11.7578 4.71875 15.7002c6.22656 -3.15234 12.749 -11.1797 14.5596 -17.9199c0.555664 -2.01074 1.00684 -5.33496 1.00684 -7.41992
c0 -4.65918 -2.09961 -11.5859 -4.68652 -15.46c-6.28613 3.17969 -12.8809 11.2793 -14.7197 18.0801zM395.2 355.84c-0.544922 -0.0380859 -1.42969 -0.0683594 -1.97559 -0.0683594c-6.22363 0 -14.9443 3.4707 -19.4648 7.74805
c4.6875 6.32324 14.8799 11.4541 22.75 11.4541c6.23535 0 14.9668 -3.48242 19.4902 -7.77344c-4.30664 -5.7627 -13.625 -10.8516 -20.7998 -11.3604zM404.32 387.68c-0.046875 0.599609 -0.0839844 1.57227 -0.0839844 2.17383c0 6.36328 3.62109 15.21 8.08398 19.7461
c5.64648 -4.2041 10.7354 -13.3076 11.3594 -20.3193c0.0683594 -0.722656 0.123047 -1.89844 0.123047 -2.62402c0 -6.2334 -3.49609 -14.9502 -7.80273 -19.4561c-5.79395 4.18652 -11.0264 13.3613 -11.6797 20.4795zM418.4 330.88
c-6.97559 0.689453 -16.0791 5.7793 -20.3203 11.3604c4.50586 4.30664 13.2227 7.80273 19.4561 7.80273c0.725586 0 1.90137 -0.0556641 2.62402 -0.123047c6.97559 -0.689453 16.0791 -5.7793 20.3203 -11.3604c-4.56641 -4.29688 -13.3604 -7.78418 -19.6299 -7.78418
c-0.677734 0 -1.77539 0.046875 -2.4502 0.104492zM432.8 360.64c0.624023 7.0127 5.71289 16.1162 11.3604 20.3203c4.29297 -4.54395 7.77832 -13.3066 7.77832 -19.5586c0 -0.65332 -0.0439453 -1.71094 -0.0986328 -2.36133
c-0.652344 -7.0293 -5.74219 -16.2041 -11.3594 -20.4805c-4.28613 4.64355 -7.76465 13.541 -7.76465 19.8594c0 0.614258 0.0380859 1.60938 0.0839844 2.2207zM437.12 302.24c-6.8125 1.82422 -14.9131 8.41797 -18.0801 14.7197
c3.91016 2.54395 10.8691 4.60938 15.5342 4.60938c9.67578 0 21.0664 -7.01074 25.4258 -15.6494c-3.96875 -2.52344 -11.0068 -4.57129 -15.71 -4.57129c-2.00977 0 -5.22168 0.399414 -7.16992 0.891602zM456.32 328.96c1.86816 6.77637 8.46289 14.876 14.7197 18.0801
c2.58691 -3.875 4.68652 -10.8008 4.68652 -15.46c0 -2.08594 -0.451172 -5.41016 -1.00684 -7.41992c-1.77637 -6.7959 -8.29883 -14.8955 -14.5596 -18.0801c-2.62109 3.9502 -4.74805 11.0039 -4.74805 15.7451c0 2.00098 0.40625 5.19727 0.908203 7.13477z
M450.4 270.88c-6.67383 2.84961 -13.7695 10.8057 -15.8408 17.7598c3.05859 1.35547 8.25586 2.45508 11.6006 2.45508s8.54199 -1.09961 11.5996 -2.45508c6.59375 -2.93945 13.7617 -10.8965 16 -17.7598c-3.07324 -1.3916 -8.30566 -2.52051 -11.6797 -2.52051
s-8.60645 1.12891 -11.6797 2.52051zM474.08 293.76c2.98145 6.36816 10.8662 13.1777 17.5996 15.2002c1.35547 -3.05859 2.45508 -8.25488 2.45508 -11.5996c0 -3.3457 -1.09961 -8.54199 -2.45508 -11.6006c-2.94238 -6.41211 -10.8271 -13.2217 -17.5996 -15.2002
c-1.35449 3.05859 -2.4541 8.25586 -2.4541 11.6006s1.09961 8.54199 2.4541 11.5996zM458.24 237.44c-5.70898 4.08105 -11.085 13.041 -12 20c1.79688 0.427734 4.75391 0.775391 6.60156 0.775391c13.9521 0 26.6201 -11.2432 28.2783 -25.0957
c-1.79297 -0.423828 -4.74316 -0.767578 -6.58496 -0.767578c-4.93652 0 -12.2363 2.2793 -16.2949 5.08789zM485.44 256c4.08105 5.70898 13.041 11.085 20 12c0.422852 -1.79297 0.766602 -4.74316 0.766602 -6.58496c0 -4.93555 -2.2793 -12.2363 -5.08691 -16.2949
c-4.00293 -5.84082 -12.9629 -11.2168 -20 -12c-0.423828 1.79297 -0.767578 4.74316 -0.767578 6.58496c0 4.93555 2.2793 12.2363 5.08789 16.2949zM460.16 203.36c-4.62695 4.52148 -8.38184 13.4414 -8.38184 19.9102c0 0.510742 0.0273438 1.33984 0.0615234 1.84961
c0.454102 0.0263672 1.19238 0.0478516 1.64746 0.0478516c15.7217 0 28.4805 -12.7598 28.4805 -28.4805c0 -0.455078 -0.0214844 -1.19336 -0.0478516 -1.64746c-0.509766 -0.0341797 -1.33789 -0.0615234 -1.84961 -0.0615234
c-6.46875 0 -15.3887 3.75488 -19.9102 8.38184zM490.24 216.8c4.66992 4.6123 13.7861 8.35449 20.3486 8.35449c0.389648 0 1.02246 -0.015625 1.41113 -0.0341797c0.0185547 -0.389648 0.0341797 -1.02148 0.0341797 -1.41113
c0 -6.5625 -3.74219 -15.6797 -8.35449 -20.3486c-4.52148 -4.62695 -13.4414 -8.38184 -19.9102 -8.38184c-0.510742 0 -1.33984 0.0273438 -1.84961 0.0615234c-0.0224609 0.423828 -0.0410156 1.11133 -0.0410156 1.53613c0 6.53516 3.74609 15.5957 8.36133 20.2236z
M456.16 169.6c-2.84863 4.03223 -5.16016 11.3115 -5.16016 16.248c0 1.71875 0.304688 4.47559 0.679688 6.15234c6.92969 -0.732422 15.8896 -5.89355 20 -11.5195c2.83594 -4.01172 5.1377 -11.2529 5.1377 -16.165c0 -1.88086 -0.366211 -4.88965 -0.817383 -6.71582
c-6.98242 0.821289 -15.8711 6.19727 -19.8398 12zM488.16 177.6c4.02734 2.80664 11.2803 5.08398 16.1885 5.08398c1.82715 0 4.75293 -0.341797 6.53125 -0.763672c-1.49902 -13.874 -14.042 -25.1338 -27.9971 -25.1338c-1.88281 0 -4.89453 0.364258 -6.72266 0.813477
c0.817383 7.0166 6.19336 15.9766 12 20zM446.24 136.96c-1.3584 3.08105 -2.45996 8.31348 -2.45996 11.6797c0 3.36719 1.10156 8.59961 2.45996 11.6807c6.7334 -2.02344 14.6182 -8.83301 17.5996 -15.2002c1.3584 -3.08105 2.45996 -8.31348 2.45996 -11.6797
c0 -3.36719 -1.10156 -8.59961 -2.45996 -11.6807c-6.77246 1.97754 -14.6572 8.78711 -17.5996 15.2002zM480 139.36c3.14355 1.44434 8.50195 2.61719 11.9609 2.61719c3.23145 0 8.2666 -1.0293 11.2393 -2.29785c-3.32227 -11.1787 -15.4844 -20.252 -27.1465 -20.252
c-3.23926 0 -8.28125 1.04492 -11.2539 2.33203c1.97754 6.77246 8.78711 14.6572 15.2002 17.6006zM430.88 106.72c-0.608398 2.09863 -1.10254 5.57324 -1.10254 7.75781c0 4.71094 2.14258 11.7012 4.78223 15.6025c6.30176 -3.16797 12.8965 -11.2676 14.7207 -18.0801
c0.547852 -2.04492 0.992188 -5.42188 0.992188 -7.53906c0 -4.74707 -2.09277 -11.835 -4.67285 -15.8213c-6.33203 3.14258 -12.9258 11.2432 -14.7197 18.0801zM464 103.2c2.00977 0.555664 5.33398 1.00684 7.41992 1.00684c4.65918 0 11.585 -2.09961 15.46 -4.6875
c-4.31055 -8.67773 -15.6729 -15.7207 -25.3633 -15.7207c-4.69238 0 -11.6797 2.09668 -15.5967 4.68164c3.12988 6.34766 11.2295 12.9414 18.0801 14.7197zM410.4 80c-0.0683594 0.722656 -0.123047 1.89746 -0.123047 2.62305c0 6.23438 3.49609 14.9502 7.80273 19.457
c5.61328 -4.22266 10.7031 -13.3262 11.3604 -20.3203c0.0458984 -0.611328 0.0839844 -1.60645 0.0839844 -2.2207c0 -6.31836 -3.47852 -15.2158 -7.76465 -19.8594c-5.61328 4.22363 -10.7021 13.3262 -11.3594 20.3203zM442.08 70.4004
c0.634766 0.0507812 1.66699 0.0927734 2.30371 0.0927734c6.26367 0 15.0518 -3.48242 19.6162 -7.77344c-4.20703 -5.54395 -13.2383 -10.6338 -20.1602 -11.3594c-0.722656 -0.0683594 -1.89746 -0.123047 -2.62305 -0.123047
c-6.23438 0 -14.9502 3.49609 -19.457 7.80273c4.24121 5.58105 13.3447 10.6699 20.3203 11.3604zM385.44 56.1602c0.657227 6.99316 5.74609 16.0967 11.3594 20.3203c4.29785 -4.56641 7.78516 -13.3604 7.78516 -19.6299
c0 -0.677734 -0.046875 -1.77539 -0.104492 -2.4502c-0.69043 -6.97559 -5.7793 -16.0791 -11.3604 -20.3203c-4.28613 4.64355 -7.76465 13.54 -7.76465 19.8594c0 0.613281 0.0380859 1.6084 0.0849609 2.2207zM416 41.7598
c6.97559 -0.689453 16.0791 -5.77832 20.3203 -11.3594c-4.50684 -4.30762 -13.2236 -7.80273 -19.457 -7.80273c-0.725586 0 -1.90039 0.0546875 -2.62305 0.12207c-6.97559 0.69043 -16.0791 5.7793 -20.3203 11.3604c4.64355 4.28613 13.54 7.76465 19.8594 7.76465
c0.614258 0 1.6084 -0.0380859 2.2207 -0.0849609zM356.96 37.4404c1.77637 6.79492 8.2998 14.8955 14.5596 18.0791c2.64746 -3.93457 4.7959 -10.9766 4.7959 -15.7188c0 -9.65332 -7.02246 -20.9609 -15.6758 -25.2412c-2.58691 3.875 -4.68652 10.8008 -4.68652 15.46
c0 2.08594 0.451172 5.41016 1.00684 7.4209zM384 18.0801c6.82031 -1.78125 14.8486 -8.37598 17.9199 -14.7197c-3.95898 -2.53027 -10.9844 -4.58398 -15.6826 -4.58398c-2.01758 0 -5.24219 0.405273 -7.19727 0.90332
c-6.8125 1.82422 -14.9121 8.41895 -18.0801 14.7207c3.90527 2.58887 10.877 4.69043 15.5625 4.69043c2.10156 0 5.45117 -0.453125 7.47754 -1.01074zM325.44 24.1602c3.04199 6.29688 10.9268 13.1064 17.5996 15.2002
c1.3916 -3.07422 2.52051 -8.30664 2.52051 -11.6807c0 -3.37305 -1.12891 -8.60645 -2.52051 -11.6797c-2.94238 -6.41309 -10.8271 -13.2227 -17.5996 -15.2002c-1.3584 3.08105 -2.45996 8.31348 -2.45996 11.6807c0 3.36621 1.10156 8.59863 2.45996 11.6797zM348.48 0
c6.6377 -2.81738 13.7344 -10.7021 15.8398 -17.5996c-3.05859 -1.35547 -8.25586 -2.45508 -11.6006 -2.45508s-8.54102 1.09961 -11.5996 2.45508c-6.54785 2.91992 -13.7158 10.8047 -16 17.5996c3.06543 1.42676 8.29785 2.58496 11.6797 2.58496
s8.61426 -1.1582 11.6807 -2.58496zM297.76 419.84c-6.27246 2.49707 -13.4404 9.59277 -16 15.8398c3.50977 1.89062 9.59375 3.4248 13.5801 3.4248c2.73438 0 7.04492 -0.746094 9.62012 -1.66406c6.35352 -2.47949 13.5215 -9.64746 16 -16
c-3.46484 -1.8457 -9.46289 -3.34375 -13.3887 -3.34375c-2.79297 0 -7.18848 0.78125 -9.81152 1.74316zM224 -64l-13.9199 2.40039c27.3047 25.2051 78.4844 53.8779 114.24 64l7.19922 2.39941c81.3516 27.7275 148.157 119.979 149.12 205.92
c-1.63672 99.4541 -82.2764 195.218 -180 213.761v3.51953c99.8789 -18.6172 182.239 -116.174 183.841 -217.76c-1.10449 -87.2178 -68.9854 -180.903 -151.521 -209.12l-7.2002 -2.56055c-32.3232 -10.373 -77.9121 -38.3994 -101.76 -62.5596zM336.32 223.04v0
l23.3594 13.4404v0zM256 336.8l140.48 -81.9199l-23.3604 -11.6797l-11.6797 -6.71973l-23.5205 -13.4404l-81.9199 -50.2402l-81.9199 50.2402l-58.5605 31.8398zM256 160l81.9199 50.0801v0v-70.2402c0 -11.04 -9.59961 -20.7998 -25.5996 -27.8398h-1.76074
c-13.793 -5.31445 -36.9854 -9.62695 -51.7676 -9.62695c-0.770508 0 -2.02148 0.0117188 -2.79199 0.0273438c-45.1201 0 -81.9199 17.2793 -81.9199 38.3994v69.6006v0zM361.44 236.48v0l11.6797 6.71973v0zM361.44 236.48v0l11.6797 6.71973v0zM378.88 190.4
c0 -6.44727 -5.23242 -11.6807 -11.6797 -11.6807s-11.6807 5.2334 -11.6807 11.6807s5.2334 11.6797 11.6807 11.6797s11.6797 -5.23242 11.6797 -11.6797zM361.44 197.76v45.2803h11.6797v-45.2803h-11.6797z" />
    <glyph glyph-name="uniF16B" unicode="&#xf16b;" 
d="M256 448c141.312 0 256 -114.688 256 -256s-114.688 -256 -256 -256c-141.312 0 -256 114.688 -256 256s114.688 256 256 256zM256 -9.59961c111.107 0.175781 201.424 90.4922 201.6 201.6c0 111.283 -90.3164 201.6 -201.6 201.6s-201.6 -90.3164 -201.6 -201.6
s90.3164 -201.6 201.6 -201.6zM256 -9.59961zM389.44 199.84v-0.639648c0.505859 0.0439453 1.32812 0.0800781 1.83594 0.0800781c11.6582 0 21.1201 -9.46191 21.1201 -21.1201s-9.46191 -21.1201 -21.1201 -21.1201c-0.507812 0 -1.33008 0.0361328 -1.83594 0.0800781
h-136.16c-11.6582 0 -21.1201 9.46191 -21.1201 21.1201v160c0 11.6582 9.46191 21.1201 21.1201 21.1201s21.1201 -9.46191 21.1201 -21.1201v-138.4h115.04zM389.44 199.2z" />
    <glyph glyph-name="uniF17D" unicode="&#xf17d;" 
d="M36.96 379.84l-0.320312 -0.160156zM480 224v-161.92c-0.799805 -4 -20.1602 -88.7998 -170.72 -105.12c-5.5918 -11.582 -20.5674 -20.9824 -33.4287 -20.9824c-0.356445 0 -0.935547 0.00976562 -1.29199 0.0224609h-18.5596
c-0.672852 -0.0439453 -1.7666 -0.0800781 -2.44141 -0.0800781c-20.5781 0 -37.2793 16.7012 -37.2793 37.2803c0 20.5781 16.7012 37.2803 37.2793 37.2803c0.674805 0 1.76855 -0.0361328 2.44141 -0.0800781h18.5596h0.118164c10.7227 0 24.3613 -7.16797 30.4424 -16
c112 12.4795 134.08 65.5996 137.12 74.3994v155.2c0 98.0801 -88.6406 168.16 -186.24 168.16s-186.24 -70.0801 -186.24 -168.16v-112c0 -5.12305 -4.15723 -9.28027 -9.2793 -9.28027h-18.5605c-0.176758 -0.0117188 -0.462891 -0.0214844 -0.639648 -0.0214844
c-5.12305 0 -9.28027 4.15723 -9.28027 9.2793v0.0224609v112c3.37598 120.271 103.728 220.624 224 224c120.271 -3.37598 220.624 -103.729 224 -224zM141.92 178.08c4.85742 -0.330078 8.7998 -4.5498 8.7998 -9.41797v-0.0224609
c5.15723 -18.6172 9.34277 -49.4053 9.34277 -68.7236c0 -1.56738 -0.0283203 -4.10938 -0.0625 -5.67578c0.0566406 -2.00977 0.103516 -5.27246 0.103516 -7.2832c0 -18.8496 -3.98926 -48.9189 -8.90332 -67.1172v-0.000976562
c0 -5.12402 -4.15723 -9.35254 -9.28027 -9.43848h-47.04c-5.12012 0 -6.39941 4.31934 -6.39941 9.43945v148.641c0 5.11914 1.2793 9.59961 6.39941 9.59961h47.04zM423.52 83.2002c-14.3926 -18.0742 -44.2109 -37.499 -66.5596 -43.3604
c-2.16992 14.9863 -4.3916 39.4287 -4.95996 54.5605c-0.0556641 1.99023 -0.101562 5.22168 -0.101562 7.21387c0 18.8252 3.98828 48.8525 8.90137 67.0254v0.00195312c0 5.12305 4.15723 9.35156 9.28027 9.43848h47.04c5.12012 0 6.39941 -4.48047 6.39941 -9.59961
v-85.2803z" />
    <glyph glyph-name="uniF17B" unicode="&#xf17b;" 
d="M404.64 240.96l-180.64 -185.92s-51.8398 -68.1602 -112 -7.04004s4.7998 115.52 4.7998 115.52l256 260.641s65.6006 60.6396 136.48 -11.6797c70.8799 -72.3203 11.3594 -139.2 11.3594 -139.2l-296.64 -303.04s-89.9199 -83.2002 -180.96 9.75977
s-9.44043 184.16 -9.44043 184.16l216.16 219.84s17.7598 21.9199 33.4404 5.75977c15.6797 -16.1602 -5.44043 -34.0801 -5.44043 -34.0801l-188.319 -192s-92.6406 -79.8398 -19.04 -154.88c73.5996 -75.04 153.6 18.5605 153.6 18.5605l247.36 253.12
s56.6396 52.3193 8.63965 101.92c-48 49.5996 -100.16 -8.48047 -100.16 -8.48047l-220.8 -225.12s-50.4004 -39.3594 -20.4805 -70.8799c29.9209 -31.5195 69.4404 20.4805 69.4404 20.4805l168.8 171.84s16.1602 22.0801 32.96 4.95996
s-5.12012 -34.2402 -5.12012 -34.2402z" />
    <glyph glyph-name="uniF16A" unicode="&#xf16a;" 
d="M80 176v32h224v-32h-224zM80 112.48v32h224v-32h-224zM80 48.96v32h224v-32h-224zM384 320v-0.959961v-383.04h-384v512h256zM272 320h66.5596l-66.5596 66.7197v-66.7197zM32 -32h320v320h-112v32v0v96h-208v-448z" />
    <glyph glyph-name="uniF169" unicode="&#xf169;" 
d="M0 448h480v-16c-0.0205078 -32.3379 -14.3564 -80.5791 -32 -107.68c-15.0996 -23.8105 -47.499 -53.9873 -72.3203 -67.3604c-4.375 -62.0195 -57.9912 -118.646 -119.68 -126.4v-72.7998c51.1484 -6.27441 102.83 -51.9346 115.36 -101.92l5.12012 -19.8398h-272.961
l4.80078 19.8398c12.5732 50.0967 64.3984 95.7568 115.68 101.92v72.7998c-61.3906 8.0127 -114.721 64.6396 -119.04 126.4c-25.0225 13.2998 -57.708 43.4775 -72.96 67.3604c-17.6436 27.1006 -31.9795 75.3418 -32 107.68v16zM32 416
c4.29883 -42.9717 36.6982 -97.6641 72.3203 -122.08v122.08h-72.3203zM375.68 293.92v-0.320312c35.7002 24.4834 68.0996 79.3184 72.3203 122.4h-72.3203v-122.08zM375.68 293.6z" />
    <glyph glyph-name="uniF178" unicode="&#xf178;" 
d="M31.6797 384.32v32h32v-32h-32zM112.64 -63.5195v32h32v-32h-32zM79.8398 0.480469v32h96.1602v-32h-96.1602zM95.8398 -31.2002v32h64.1602v-32h-64.1602zM-0.320312 224v192.32h32v-192.32h-32zM63.6797 31.6797v416.641h128.16v-416.641h-128.16zM439.36 249.92
l24.6396 -23.2002l-73.9199 -69.4395l-24.6396 -23.2002l-24.4805 23.2002l-36.96 34.7197l24.6396 23.2002l36.8008 -34.7197zM365.44 180.48zM255.84 63.8398v256.32h32v-256.32h-32zM512 288h-256v32h256v-32zM512 320v-256h-32v256h32zM256 96h256v-32h-256v32z" />
    <glyph glyph-name="uniF170" unicode="&#xf170;" 
d="M0 64v256h251.2v-256h-251.2zM322.4 64v256h251.199v-256h-251.199zM644.8 64v256h27.8398v-256h-27.8398zM868.16 64v256h27.8398v-256h-27.8398zM644.8 291.52v28.4805h251.2v-28.4805h-251.2zM644.8 64v28.4805h251.2v-28.4805h-251.2z" />
    <glyph glyph-name="uniF171" unicode="&#xf171;" 
d="M0 64v256h256v-256h-256zM320 64v256h256v-256h-256zM640 64v256h256v-256h-256z" />
    <glyph glyph-name="uniF16F" unicode="&#xf16f;" 
d="M0 64v256h256v-256h-256zM320 64v256h28.4805v-256h-28.4805zM558.72 64v256h28.4805v-256h-28.4805zM320 291.52v28.4805h256v-28.4805h-256zM320 64v28.4805h256v-28.4805h-256zM640 64v256h28.4805v-256h-28.4805zM867.52 64v256h28.4805v-256h-28.4805zM640 291.52
v28.4805h256v-28.4805h-256zM640 64v28.4805h256v-28.4805h-256z" />
    <glyph glyph-name="uniF16E" unicode="&#xf16e;" 
d="M337.92 221.6v-3.04004l-3.83984 1.44043zM338.08 217.12l-4.16016 -1.60059v3.04004zM337.44 180.8l-213.601 86.4004v-176.8h-42.5596v194.08l-81.2803 32.7998l334.08 130.72l337.92 -130.72zM548.32 224l0.959961 -217.6v0
c-5.28027 -42.0801 -96 -70.4004 -197.28 -70.4004s-180.96 28.3203 -185.76 70.4004v0v200.479l117.279 -48l52.4805 -21.4395z" />
    <glyph glyph-name="uniF163" unicode="&#xf163;" 
d="M389.76 -20.1602l-49.4395 7.52051c-1.39551 0.224609 -3.6748 0.40625 -5.08789 0.40625c-6.94434 0 -16.707 -3.83789 -21.792 -8.56641l-35.2002 -34.2402c-4.98535 -4.94824 -14.7314 -8.96387 -21.7549 -8.96387
c-0.133789 0 -0.351562 0.00195312 -0.485352 0.00390625c-0.323242 -0.0117188 -0.849609 -0.0214844 -1.17285 -0.0214844c-6.83789 0 -16.4912 3.7373 -21.5469 8.3418l-35.04 34.2393c-5.08496 4.72949 -14.8486 8.56738 -21.792 8.56738
c-1.41406 0 -3.69336 -0.182617 -5.08789 -0.407227l-49.2803 -7.83984c-1.37891 -0.219727 -3.63184 -0.397461 -5.02832 -0.397461c-5.68066 0 -14.0361 2.68652 -18.6514 5.99805c-5.86426 3.89746 -11.4551 12.7139 -12.4805 19.6797l-7.51953 48
c-1.41895 8.20996 -8.58691 17.958 -16 21.7598l-44.8008 21.2803c-6.49902 3.02539 -13.667 10.9814 -16 17.7598c-0.845703 2.48145 -1.5332 6.62402 -1.5332 9.24609c0 4.00391 1.54688 10.1123 3.45312 13.6338l22.8809 42.8799
c1.99121 3.39453 3.6084 9.34473 3.6084 13.2803s-1.61719 9.88574 -3.6084 13.2803l-22.8809 42.7197c-1.93066 3.56348 -3.49707 9.74414 -3.49707 13.7969c0 2.38281 0.563477 6.16504 1.25781 8.44336c2.44238 6.67969 9.61035 14.6357 16 17.7598l45.4395 21.4404
c7.4541 3.77148 14.6221 13.5205 16 21.7598l7.52051 48c1.02539 6.96582 6.61621 15.7822 12.4795 19.6797c4.72266 3.27637 13.2207 5.93555 18.9688 5.93555c1.30762 0 3.41797 -0.150391 4.71191 -0.334961l49.2793 -7.84082
c1.39551 -0.224609 3.6748 -0.40625 5.08789 -0.40625c6.94434 0 16.707 3.83789 21.792 8.56641l35.04 34.4004c5.26172 4.77441 15.2969 8.7168 22.4004 8.7998l0.199219 0.000976562c7.05273 0 16.9277 -3.94336 22.041 -8.80078l35.6797 -34.4004
c5.08496 -4.72852 14.8477 -8.56641 21.792 -8.56641c1.41309 0 3.69238 0.181641 5.08789 0.40625l49.4404 7.84082c1.39355 0.223633 3.66992 0.405273 5.08105 0.405273c5.60059 0 13.8613 -2.61914 18.4385 -5.8457c5.87109 -3.90137 11.5332 -12.7188 12.6406 -19.6797
l7.51953 -47.2002c1.25391 -8.38574 8.42188 -18.2773 16 -22.0801l44.6396 -20.6396c6.48926 -2.91211 13.6572 -10.7256 16 -17.4404c0.791992 -2.5127 1.43457 -6.69043 1.43457 -9.3252c0 -4.09473 -1.50293 -10.3828 -3.35449 -14.0352l-23.1992 -42.3994
c-1.92285 -3.46094 -3.48242 -9.48145 -3.48242 -13.4404c0 -3.95801 1.55957 -9.97949 3.48242 -13.4395l23.1992 -42.5605c1.84766 -3.62695 3.34766 -9.87402 3.34766 -13.9443c0 -2.61523 -0.639648 -6.76172 -1.42773 -9.25586
c-2.29785 -6.78223 -9.46582 -14.667 -16 -17.5996l-45.1191 -21.2803c-7.53711 -3.77148 -14.7051 -13.5918 -16 -21.9199l-7.52051 -48c-1.10645 -6.96094 -6.76953 -15.7783 -12.6396 -19.6797c-4.54395 -3.15527 -12.7217 -5.7168 -18.2529 -5.7168
c-1.46387 0 -3.82324 0.195312 -5.26758 0.436523zM256 14.2402c1.07422 -0.0224609 2.81836 -0.0410156 3.89258 -0.0410156c100.647 0 184.274 81.6621 186.667 182.281c-2.39258 100.618 -86.0195 182.28 -186.667 182.28
c-1.07422 0 -2.81836 -0.0185547 -3.89258 -0.0410156c-1.0752 0.0224609 -2.82129 0.0410156 -3.89648 0.0410156c-100.649 0 -184.347 -81.6621 -186.823 -182.28c2.47656 -100.619 86.1738 -182.281 186.823 -182.281c1.0752 0 2.82129 0.0185547 3.89648 0.0410156z
M256 14.2402zM256 337.12c0.764648 0.0146484 2.00586 0.0263672 2.77051 0.0263672c77.4102 0 141.899 -62.8037 143.949 -140.187c-2.0498 -77.3828 -66.5391 -140.187 -143.949 -140.187c-0.764648 0 -2.00586 0.0117188 -2.77051 0.0263672
c-0.720703 -0.0126953 -1.88965 -0.0234375 -2.61035 -0.0234375c-77.4092 0 -141.898 62.8018 -143.949 140.184c2.05078 77.3818 66.54 140.184 143.949 140.184c0.720703 0 1.88965 -0.0107422 2.61035 -0.0234375zM260.64 136.16l114.08 112l-37.9199 37.2803
l-113.92 -112l-56.96 55.8398l-37.9199 -37.2803l56.7998 -55.8398l37.9199 -37.2803z" />
    <glyph glyph-name="uniF177" unicode="&#xf177;" 
d="M272 -64h-32v192h32v-192zM80.0986 -61.6699l-22.6191 22.6357l174.631 174.51l22.6201 -22.6357zM454.618 -39.2588l-22.6201 -22.6357l-175.536 175.414l22.6191 22.6357zM512 110.72h-512v304h512v-304zM34.7197 145.28h442.561v234.239h-442.561v-234.239z
M240 413.92v34.0801h32v-34.0801h-32z" />
    <glyph glyph-name="uniF16C" unicode="&#xf16c;" 
d="M27.5195 417.6c17.1865 16.3467 50.3838 29.6143 74.1025 29.6143c6.10742 0 15.918 -1.00977 21.8975 -2.25391c54.2402 -14.4004 122.4 -62.0801 182.4 -62.0801s104.48 18.8799 110.08 33.1201v-247.2c-5.59961 -13.5996 -50.0801 -32 -109.92 -32
s-128 48 -182.4 62.0801c-5.97949 1.24414 -15.79 2.25391 -21.8975 2.25391c-23.7188 0 -56.916 -13.2676 -74.1025 -29.6143v240.32zM0 -64v512h32v-512h-32z" />
    <glyph glyph-name="uniF16D" unicode="&#xf16d;" 
d="M549.76 391.04c23.3164 -0.0878906 42.2402 -19.083 42.2402 -42.3994v-0.160156v-369.761l0.000976562 -0.320312c0 -23.3174 -18.9238 -42.3125 -42.2412 -42.3994h-507.52c-23.3174 0.0869141 -42.2412 19.082 -42.2412 42.3994
c0 0.0888672 0 0.232422 0.000976562 0.320312v426.561c-0.000976562 0.0878906 -0.000976562 0.231445 -0.000976562 0.320312c0 23.3174 18.9238 42.3125 42.2412 42.3994h128h0.0439453c11.7051 0 26.8096 -7.66992 33.7158 -17.1201l24.7998 -34.0801
c2.30762 -3.11328 7.3252 -5.69434 11.2002 -5.75977h309.76zM42.2402 419.52c-7.77246 -0.0869141 -14.0801 -6.46582 -14.0801 -14.2383v-0.000976562v-99.5205h535.68v42.7207v0c0 7.77344 -6.30762 14.1523 -14.0801 14.2393h-313.76
c-7.78906 0.0332031 -17.8955 5.12305 -22.5596 11.3604l-25.2803 34.0801c-4.63379 6.27051 -14.7227 11.3594 -22.5195 11.3594h-0.0410156h-123.359zM549.76 -35.5195c7.77246 0.0869141 14.0801 6.46582 14.0801 14.2383v0.000976562v298.561h-535.68v-298.561
v-0.000976562c0 -7.77246 6.30762 -14.1514 14.0801 -14.2383h507.52z" />
    <glyph glyph-name="uniF17C" unicode="&#xf17c;" 
d="M256 448c141.312 0 256 -114.688 256 -256s-114.688 -256 -256 -256c-141.312 0 -256 114.688 -256 256s114.688 256 256 256zM393.44 184.64c2.2959 1.5498 4.15918 5.05566 4.15918 7.8252v0.015625c0.00585938 0.119141 0.0107422 0.314453 0.0107422 0.433594
c0 2.36426 -1.50977 5.4668 -3.37012 6.92578l-193.44 132.32c-0.882812 0.733398 -2.53125 1.3291 -3.67969 1.3291s-2.79688 -0.595703 -3.67969 -1.3291c-2.88086 -1.44043 -1.44043 -4.48047 -1.44043 -7.67969v-264.961c0 -3.19922 0.639648 -6.55957 1.44043 -7.67969
c0.799805 -1.12012 -0.640625 -1.12012 0.799805 -1.12012h0.0537109c1.49805 0 3.69629 0.716797 4.90625 1.60059z" />
    <glyph glyph-name="uniF176" unicode="&#xf176;" 
d="M595.2 264.96v-0.160156c7.06836 -6.82324 12.8057 -20.335 12.8057 -30.1602c0 -9.82422 -5.7373 -23.3359 -12.8057 -30.1592c-6.79688 -6.89258 -20.1689 -12.4863 -29.8486 -12.4863c-0.196289 0 -0.515625 0.00292969 -0.711914 0.00585938v-128
c0.0322266 -0.592773 0.0576172 -1.55469 0.0576172 -2.14844c0 -9.62109 -5.68848 -22.7803 -12.6973 -29.3721c-6.8457 -7.06543 -20.3857 -12.8008 -30.2236 -12.8008c-0.0927734 0 -0.243164 0.000976562 -0.336914 0.000976562
c-94.1862 77.1204 -186.026 119.361 -275.52 126.721c-10.5547 -3.25195 -24.3896 -13.1445 -30.8799 -22.0801c-5.75781 -7.77539 -10.4316 -21.9385 -10.4316 -31.6143c0 -0.503906 0.0146484 -1.32227 0.03125 -1.82617
c0.25293 -10.0273 6.27344 -23.8613 13.4404 -30.8799c-3.55664 -5.49902 -6.99707 -15.2471 -7.67969 -21.7598c-0.178711 -1.47559 -0.322266 -3.87891 -0.322266 -5.36426c0 -3.96191 1.00391 -10.2324 2.24219 -13.9961
c2.29883 -5.55469 7.38867 -13.7266 11.3594 -18.2402c4.07617 -4.75586 11.2441 -11.9238 16 -16c4.80078 -4.63965 12.3203 -10.2393 20.8008 -16.7998c-6.9668 -12.3535 -23.8828 -24.7539 -37.7607 -27.6797c-9.9707 -3.00488 -26.5146 -5.44238 -36.9277 -5.44238
c-5.6084 0 -14.6543 0.717773 -20.1924 1.60254c-13.8623 1.43164 -33.9326 9.6748 -44.7998 18.3994c-1.59961 5.12012 -4.95996 14.4004 -10.0801 29.2803s-8.63965 25.4404 -10.8799 32c-2.55989 7.14648 -5.11979 17.2799 -7.67969 30.4004
c-2.30566 9.1377 -4.59961 24.1904 -5.12012 33.5996c-0.0449219 1.81738 -0.0800781 4.76855 -0.0800781 6.58594c0 7.03027 0.537109 18.416 1.2002 25.4141c1.03906 10.3965 4.55078 26.8828 7.83984 36.7998h-41.7598
c-0.196289 -0.00292969 -0.515625 -0.00488281 -0.711914 -0.00488281c-12.2422 0 -29.0547 7.16992 -37.5283 16.0049c-8.83496 8.24902 -16.0059 24.7529 -16.0059 36.8398c0 0.209961 0.00292969 0.550781 0.00585938 0.760742v64
c-0.00195312 0.152344 -0.00292969 0.401367 -0.00292969 0.553711c0 12.1328 7.16895 28.7295 16.0029 37.0459c8.5625 8.83301 25.4951 16.002 37.7969 16.002l0.443359 -0.00195312h162.88c98.3463 0 199.68 42.6667 304 128l0.556641 0.00390625
c9.75195 0 23.1934 -5.66504 30.0029 -12.6436c7.1543 -6.63184 12.9609 -19.9316 12.9609 -29.6875l-0.000976562 -0.232422v-128c0.196289 0.00292969 0.515625 0.00585938 0.711914 0.00585938c9.67969 0 23.0518 -5.59375 29.8486 -12.4863zM521.12 76.3203v317.76
c-89.1732 -66.987 -176 -105.067 -260.48 -114.24v-89.9199c85.1205 -9.27995 171.947 -47.1465 260.48 -113.6zM521.12 394.08z" />
    <glyph glyph-name="uniF179" unicode="&#xf179;" 
d="M417.92 122.56h-0.160156c51.9307 -0.000976562 94.0771 -42.1494 94.0771 -94.0791c0 -51.9326 -42.1484 -94.0801 -94.0801 -94.0801c-51.9326 0 -94.0801 42.1475 -94.0801 94.0801l0.00292969 0.799805c0.0898438 7.42383 2.02539 19.1787 4.32031 26.2393
l-159.04 80.8008c-15.4424 -20.7461 -48.9639 -37.582 -74.8262 -37.582c-51.4902 0 -93.2793 41.7891 -93.2793 93.2793c0 51.4912 41.7891 93.2803 93.2793 93.2803c25.0479 0 57.9248 -15.9922 73.3857 -35.6982l160 80.96
c-1.97461 6.52246 -3.62402 17.3457 -3.67969 24.1602c0 51.9326 42.1484 94.0801 94.0801 94.0801c51.9326 0 94.0801 -42.1475 94.0801 -94.0801c-0.0585938 -51.874 -42.2061 -93.9746 -94.0801 -93.9746c-25.8379 0 -59.4561 16.7266 -75.04 37.335l-159.04 -80
c2.30664 -7.01367 4.24219 -18.6973 4.32031 -26.0801c-0.121094 -6.80469 -1.76953 -17.6279 -3.67969 -24.1602l160 -80.96c15.4609 19.6953 48.332 35.6797 73.3711 35.6797h0.0683594zM417.76 122.56z" />
    <glyph glyph-name="uniF164" unicode="&#xf164;" 
d="M256 37.1201c-85.4941 0 -154.88 69.3857 -154.88 154.88s69.3857 154.88 154.88 154.88s154.88 -69.3857 154.88 -154.88c-0.0878906 -85.4053 -69.4746 -154.792 -154.88 -154.88zM256 341.12c-82.5791 -0.000976562 -149.6 -67.0215 -149.6 -149.601
s67.0215 -149.6 149.601 -149.6s149.6 67.0205 149.6 149.6l-0.000976562 0.480469c0 82.5791 -67.0205 149.6 -149.6 149.6v-0.479492zM470.56 163.68l33.4404 -38.5596l-48 -16l21.7598 -45.1201l-50.0801 -3.67969l9.28027 -49.2803l-49.2803 9.28027l-3.67969 -50.0801
l-45.7598 22.3994l-16 -48l-37.9199 32.8008l-28.3203 -41.4404l-28.96 40.7998l-37.9199 -32.7998l-16 48l-45.1201 -21.7598l-3.67969 50.0801l-49.2803 -9.28027l9.28027 49.2803l-50.0801 3.67969l23.2002 45.7598l-48 16l32 37.9199l-41.4404 28.3203l40.7998 28.96
l-32.7998 37.9199l48 16l-21.7598 45.1201l50.0801 3.67969l-9.28027 49.2803l49.2803 -9.28027l3.67969 50.0801l45.7598 -23.2002l16 48l37.9199 -32l28.3203 41.4404l28.3203 -41.4404l38.5596 33.4404l16 -48l45.1201 21.7598l3.67969 -50.0801l49.2803 9.28027
l-9.28027 -49.2803l50.0801 -3.67969l-22.3994 -45.7598l48 -16l-32.8008 -37.9199l41.4404 -28.3203zM256 3.83984c103.864 0 188.16 84.2959 188.16 188.16s-84.2959 188.16 -188.16 188.16s-188.16 -84.2959 -188.16 -188.16s84.2959 -188.16 188.16 -188.16z
M221.12 165.44l100.8 101.119l17.9199 -17.7598l-118.56 -118.56l-7.68066 7.67969v0l-42.0801 42.0801l17.6006 17.4404zM321.92 266.56z" />
    <glyph glyph-name="uniF167" unicode="&#xf167;" 
d="M480 23.2002c-41.3682 -16.7041 -111.149 -30.2617 -155.763 -30.2617c-1.16895 0 -3.06738 0.00976562 -4.2373 0.0214844c-22.25 0.0078125 -58.0898 3.16113 -80 7.04004c-32.1406 -22.1338 -88.9824 -47.6514 -126.88 -56.96
c-10.8799 -2.55957 -23.04 -4.95996 -39.04 -7.04004h-1.44043c-2.92676 0.00683594 -7.08398 1.58398 -9.2793 3.51953c-2.36426 2.0459 -4.72949 6.20312 -5.28027 9.28027c-0.0693359 0.416992 -0.125 1.09766 -0.125 1.52051
c0 0.421875 0.0556641 1.10352 0.125 1.51953c-0.0332031 0.396484 -0.0595703 1.04199 -0.0595703 1.44043c0 0.397461 0.0263672 1.04297 0.0595703 1.43945c0.147461 0.750977 0.577148 1.89746 0.959961 2.56055l1.12012 2.23926l1.59961 2.40039
c0.959961 2.24023 1.60059 2.40039 1.75977 2.24023c0.160156 -0.160156 0.320312 0.320312 2.08008 2.24023c1.76074 1.91992 0.160156 0 1.76074 1.91992c1.59961 1.91992 4.95996 5.59961 10.3994 11.1992c3.50781 3.44238 8.88379 9.32031 12 13.1201l10.0801 12.8008
c3.60742 4.4375 8.76758 12.1064 11.5205 17.1191c3.04004 5.9209 6.23926 12.4805 9.2793 19.6807c-29.4844 16.0186 -69.1953 51.2129 -88.6396 78.5596c-17.6396 24.6846 -31.9756 69.3408 -32 99.6807c0.250977 35.8447 19.3896 87.0244 42.7197 114.239
c26.5186 31.1543 79.0596 68.2852 117.28 82.8799c41.5576 16.7891 111.662 30.415 156.483 30.415c0.970703 0 2.5459 -0.00683594 3.5166 -0.0146484c1.0625 0.00976562 2.78809 0.0175781 3.85156 0.0175781c44.7324 0 114.687 -13.627 156.148 -30.418
c38.0312 -14.6572 90.2861 -51.7881 116.64 -82.8799c23.5869 -27.1191 42.7295 -78.2988 42.7295 -114.239c0 -35.9414 -19.1426 -87.1211 -42.7295 -114.24c-26.3105 -31.1807 -78.5654 -68.3828 -116.64 -83.04zM226.4 60.4805l24 -4.48047
c19.0586 -3.39941 50.2393 -6.19434 69.5996 -6.24023c0.833984 -0.00683594 2.1875 -0.0126953 3.02148 -0.0126953c36.1797 0 93.0303 10.3281 126.898 23.0527c30.6777 10.9102 73.6865 39.0088 96 62.7197c19.1631 19.5371 35.1475 57.5996 35.6797 84.9609
c-0.539062 27.3203 -16.5244 65.3105 -35.6797 84.7998c-22.2812 23.7607 -65.29 51.8594 -96 62.7197c-33.8682 12.7246 -90.7188 23.0527 -126.899 23.0527c-0.833008 0 -2.18652 -0.00585938 -3.02051 -0.0126953
c-0.876953 0.0078125 -2.30078 0.0136719 -3.17773 0.0136719c-36.1807 0 -93.0332 -10.3281 -126.902 -23.0537c-30.71 -10.8604 -73.7178 -38.959 -96 -62.7197c-19.1553 -19.4893 -35.1396 -57.4795 -35.6797 -84.7998c0.28125 -21.5537 11.0332 -53.0215 24 -70.2402
c15.1045 -20.3271 45.4258 -46.6338 67.6797 -58.7207l44.3203 -24.7998l-16 -37.4395c10.2402 5.91992 19.6797 11.6797 28.1602 17.2793zM250.4 56zM117.76 226.24v31.3594h420v-31.3594h-420zM117.76 160.64v31.3604h272v-31.3604h-272z" />
    <glyph glyph-name="uniF174" unicode="&#xf174;" 
d="M0 -64h384h-384zM352 -32h-320zM137.76 209.44c5.58398 -9.1123 10.1162 -25.1797 10.1162 -35.8662c0 -0.611328 -0.0166016 -1.60352 -0.0361328 -2.21387c0.0458984 -0.902344 0.0839844 -2.36816 0.0839844 -3.27148c0 -10.1074 -4.33887 -25.2715 -9.68359 -33.8486
c-4.95605 -7.42969 -16.2266 -13.46 -25.1572 -13.46c-0.298828 0 -0.78418 0.00878906 -1.08301 0.0195312h-15.2002v-56.7998h-22.0801v160h37.2803l0.264648 0.000976562c9.33203 0 20.7539 -6.52344 25.4951 -14.5605zM121.76 153.6h-0.160156
c1.9043 3.91406 3.44922 10.624 3.44922 14.9766c0 0.680664 -0.0400391 1.78418 -0.0888672 2.46387c0.0146484 0.424805 0.0263672 1.11328 0.0263672 1.53809c0 5.0293 -1.58887 12.8701 -3.5459 17.502c-1.3877 3.58398 -5.61719 6.80957 -9.44043 7.2002h-15.2002
v-49.7607h15.2002h0.0957031c3.72363 0 8.05273 2.72363 9.66406 6.08008zM221.92 206.4c6.8291 -11.6611 12.3711 -32.0908 12.3711 -45.6045c0 -0.837891 -0.0224609 -2.19824 -0.0507812 -3.03613v-26.5596c0.0683594 -1.31543 0.123047 -3.45312 0.123047 -4.77051
c0 -13.1025 -5.14453 -33.043 -11.4834 -44.5098c-5.6748 -9.90039 -19.543 -17.9355 -30.9541 -17.9355c-0.289062 0 -0.756836 0.00683594 -1.0459 0.015625h-28.3203v160h29.4404c11.0791 -0.0615234 24.4834 -7.94629 29.9199 -17.5996zM211.52 129.12
l-0.639648 27.6797c0.0898438 1.39062 0.162109 3.65039 0.162109 5.04395c0 7.43164 -2.00781 19.1494 -4.48242 26.1562c-2.37012 5.12305 -8.875 9.28027 -14.5195 9.28027h-0.0400391h-7.67969v-105.92h6.55957
c0.500977 -0.0576172 1.31836 -0.104492 1.82227 -0.104492c5.34766 0 11.6992 3.8457 14.1777 8.58398c2.60938 6.86621 4.72656 18.3994 4.72656 25.7451c0 0.975586 -0.0390625 2.55957 -0.0869141 3.53516zM305.12 129.76h-34.2402v-65.7598h-22.0801v160h60.4805
v-26.7197h-38.4004v-40.7998h34.2402v-26.7207zM384 320v-0.959961v-383.04h-384v512h256zM272 320h66.5596l-66.5596 66.7197v-66.7197zM32 -32h320v320h-112v32v0v96h-208v-448z" />
    <glyph glyph-name="uniF17A" unicode="&#xf17a;" 
d="M272 448l84.4805 -168.64l188.64 -26.8799l-136.48 -131.2l32.1602 -185.28l-168.8 87.3604l-168.8 -87.3604l32.3193 185.28l-136.64 131.2l188.8 26.8799z" />
    <glyph glyph-name="uniF172" unicode="&#xf172;" 
d="M141.12 164.96h0.479492c9.6377 -0.248047 17.459 -8.27441 17.459 -17.9141c0 -0.222656 -0.00878906 -0.583984 -0.0185547 -0.805664v-173.44c0.00390625 -0.136719 0.00683594 -0.359375 0.00683594 -0.49707c0 -9.63965 -7.81641 -17.8037 -17.4473 -18.2227
h-107.68c-9.21777 0.238281 -17.0312 7.90723 -17.4395 17.1201v173.76c-0.0498047 0.50293 -0.0898438 1.32031 -0.0898438 1.8252c0 3.85254 2.04688 9.34277 4.56934 12.2549c2.81836 3.17871 8.55273 5.83105 12.7998 5.91992h107.36zM338.08 388.16
l-0.160156 -0.320312v-35.2002c0 -31.1992 -83.04 -165.92 -102.24 -183.199c-10.9814 -7.84082 -30.5498 -16.7285 -43.6797 -19.8408l-16 -5.59961v-154.4h23.3604c11.8096 -0.763672 28.7969 -7.50098 37.9199 -15.04c2.5 -1.80078 6.72949 -4.45312 9.43945 -5.91992
h224c0.197266 -0.00683594 0.516602 -0.0136719 0.713867 -0.0136719c4.33984 0 10.3281 2.51562 13.3662 5.61426c1.78809 1.65918 3.58105 4.95605 4 7.35938c-0.0224609 -0.175781 -0.0410156 -0.461914 -0.0410156 -0.639648s0.0185547 -0.463867 0.0410156 -0.639648
v61.4395c0.186523 -0.00585938 0.489258 -0.0117188 0.675781 -0.0117188c4.38477 0 10.4609 2.51465 13.5645 5.6123c1.82617 1.69141 3.61816 5.05957 4 7.51953c-0.03125 -0.197266 -0.0566406 -0.519531 -0.0566406 -0.719727s0.0253906 -0.522461 0.0566406 -0.719727
v61.4395c0.197266 -0.0078125 0.516602 -0.0136719 0.713867 -0.0136719c4.33984 0 10.3281 2.51465 13.3662 5.61426c1.79785 1.70605 3.58887 5.0752 4 7.51953c-0.0292969 -0.175781 -0.0537109 -0.461914 -0.0537109 -0.639648
c0 -0.178711 0.0244141 -0.464844 0.0537109 -0.640625v61.4404c0.246094 -0.0117188 0.646484 -0.0214844 0.893555 -0.0214844c4.2998 0 10.2793 2.44727 13.3467 5.46094c0.610352 0.597656 1.4707 1.67285 1.91992 2.40039h-220.48l9.60059 40.1602
c5.59961 19.8398 13.9199 83.8398 17.5996 110.24c-1.46094 11.8291 -5.90527 30.5371 -9.91992 41.7598zM328.96 448c6.40723 -0.149414 16.2988 -2.51465 22.0801 -5.28027c12.6133 -25.5029 25.9453 -69.085 29.7598 -97.2793c0 0 -12.7998 -89.4404 -18.7197 -116.641
h181.6c53.7607 0 35.3604 -73.1201 -18.5596 -73.1201c53.9199 0 35.3604 -73.1201 -18.4004 -73.1201c53.7607 0 35.3604 -73.2793 -18.5596 -73.2793c53.9199 0 35.3594 -73.1201 -18.4004 -73.1201h-225.6c-17.4404 0 -33.1201 21.1201 -45.9199 21.1201h-54.7207v208
c14.5605 9.91992 62.2402 21.2793 70.5605 28.7998c18.0801 16.1602 91.5195 143.04 91.5195 158.88s-6.65137 78.377 -1.59961 84.3203c5.05176 5.94238 15.4834 10.7656 23.2832 10.7656c0.462891 0 1.21484 -0.0205078 1.67676 -0.0458984z" />
    <glyph glyph-name="uniF175" unicode="&#xf175;" 
d="M361.44 -25.9199c12.5508 -5.35938 22.7373 -20.7852 22.7373 -34.4326c0 -1.00879 -0.0791016 -2.64355 -0.177734 -3.64746h-384c-0.00390625 0.198242 -0.00683594 0.520508 -0.00683594 0.71875c0 13.2305 9.75195 28.4629 21.7666 34.001
c23.1807 9.6748 61.7451 22.5771 86.0801 28.7998c26.4004 6.40039 22.2402 61.1201 22.2402 86.4004c0 1.12012 -6.56055 6.40039 -7.52051 7.36035c-9.59961 11.8398 -7.67969 27.8398 -9.59961 42.8799c-0.959961 0.639648 -0.959961 3.2002 -0.959961 6.39941
c-1.16016 8.24707 -7.61133 18.8564 -14.4004 23.6807c-3.31836 2.8252 -6.83008 8.55957 -7.83984 12.7998c-2.45215 14.3594 -7.97168 37.2969 -12.3193 51.2002c-0.904297 2.5498 -1.63867 6.81445 -1.63867 9.51953s0.734375 6.9707 1.63867 9.52051
c3.49316 5.37598 6.32812 14.9443 6.32812 21.3555c0 1.21973 -0.111328 3.19238 -0.249023 4.4043c-1.59961 12 -3.51953 28 -3.51953 28s-13.4404 71.6797 21.4404 96c12.4053 14.5156 36.9922 31.7188 54.8799 38.4004
c0.506836 0.0400391 1.33105 0.0722656 1.83984 0.0722656s1.33301 -0.0322266 1.83984 -0.0722656c3.24023 0.314453 8.11426 1.96387 10.8799 3.67969c6.38086 3.74219 17.5635 6.82422 24.96 6.87988h4.32031c14.0801 -1.44043 91.5195 -11.04 106.88 -77.7598
c0.351562 -1.48633 0.78125 -3.92383 0.959961 -5.44043c1.27344 -10.9395 2.30762 -28.7568 2.30762 -39.7705c0 -14.0508 -1.67871 -36.7324 -3.74805 -50.6289c-0.393555 -2.19727 -0.713867 -5.79199 -0.713867 -8.02441c0 -6.1748 2.32715 -15.626 5.19434 -21.0957
c0.849609 -2.38672 1.54004 -6.37891 1.54004 -8.91211c0 -3.25781 -1.12012 -8.29688 -2.5 -11.248c-1.98633 -6.73828 -4.42383 -17.8486 -5.44043 -24.7998c-0.40918 -6.55664 -1.84277 -17.0928 -3.19922 -23.5205
c-0.682617 -2.66797 -3.12012 -6.03711 -5.44043 -7.51953c-8.20898 -5.78613 -15.377 -18.6172 -16 -28.6406v0c-2.24023 -14.8799 -0.320312 -49.1201 -18.2402 -52.1592c0 -31.3604 -8.7998 -83.04 26.2402 -93.9209c20.7275 -4.01074 53.6279 -13.1855 73.4404 -20.4795
z" />
    <glyph glyph-name="uniF173" unicode="&#xf173;" 
d="M589.92 448c45.3086 0 82.0811 -36.7715 82.0811 -82.0801l-0.000976562 -0.320312v-347.359c0 -45.3965 -36.8438 -82.2402 -82.2402 -82.2402h-507.52c-45.3965 0 -82.2402 36.8438 -82.2402 82.2402v347.52c-0 45.3965 36.8438 82.2402 82.2402 82.2402h507.68z
M634.56 18.2402h-0.15918v347.359c0 24.6416 -19.999 44.6406 -44.6406 44.6406h-507.52c-24.6416 0 -44.6406 -19.999 -44.6406 -44.6406v0v-347.359c0 -24.6416 19.999 -44.6406 44.6406 -44.6406h507.68c24.6416 0 44.6396 19.999 44.6396 44.6406zM634.4 18.2402z
M423.84 196.32l164.96 -157.12c3.24121 -3.08105 5.87207 -9.21191 5.87207 -13.6836c0 -4.10547 -2.27246 -9.87402 -5.07227 -12.877c-3.11621 -3.17871 -9.25879 -5.75977 -13.7109 -5.75977h-0.0488281c-0.0527344 0 -0.138672 -0.000976562 -0.192383 -0.000976562
c-4.05371 0 -9.70215 2.29395 -12.6074 5.12109l-167.2 158.88l-46.8799 -41.9199c-2.91797 -2.69336 -8.50879 -4.87891 -12.4795 -4.87891c-3.97168 0 -9.5625 2.18555 -12.4805 4.87891l-45.5996 40.7998l-167.36 -157.439
c-2.96777 -2.82617 -8.70215 -5.12012 -12.7998 -5.12012c-4.49219 0.107422 -10.6562 2.83105 -13.7598 6.08008c-3.01465 3.0459 -5.46094 8.99512 -5.46094 13.2793c0 4.28516 2.44629 10.2344 5.46094 13.2803l165.6 155.2l-166.24 148.8
c-4.18066 3.12598 -7.57324 9.90039 -7.57324 15.1201c0 10.4219 8.45801 18.8799 18.8799 18.8799c4.45801 0 10.5742 -2.61621 13.6533 -5.83984l180.32 -161.44l3.04004 -2.55957v0l43.8398 -39.8398l227.04 203.68c2.78027 2.08789 7.85938 3.7832 11.3369 3.7832
c10.4219 0 18.8799 -8.45898 18.8799 -18.8809c0 -4.11621 -2.2832 -9.89648 -5.09668 -12.9023zM588.8 39.2002z" />
  </font>
</defs>
</svg>
